<?xml version="1.0" standalone="no"?>
<!DOCTYPE svg PUBLIC "-//W3C//DTD SVG 1.1//EN" "http://www.w3.org/Graphics/SVG/1.1/DTD/svg11.dtd" >
<svg>
<metadata>
Created by FontForge 20090622 at Mon Aug 29 12:16:09 2016
 By deploy user
No Rights Reserved.
</metadata>
<defs>
<font id="Aileron-Heavy" horiz-adv-x="642" >
  <font-face 
    font-family="Aileron Heavy"
    font-weight="900"
    font-stretch="normal"
    units-per-em="1000"
    panose-1="0 0 10 0 0 0 0 0 0 0"
    ascent="770"
    descent="-230"
    x-height="529"
    cap-height="690"
    bbox="-113 -223 1094 918"
    underline-thickness="50"
    underline-position="-50"
    unicode-range="U+0020-U+FB02"
  />
<missing-glyph horiz-adv-x="500" 
d="M0 0v700h500v-700h-500zM250 395l170 255h-340zM280 350l170 -255v510zM80 50h340l-170 255zM50 605v-510l170 255z" />
    <glyph glyph-name="fi" unicode="fi" horiz-adv-x="630" 
d="M570 529v-529h-156v429h-181v-429h-156v429h-57v100h57v7q0 41 1 59q7 79 65 119t188 40q37 0 83 -7v-106q-99 7 -136.5 -7t-42.5 -53q-2 -14 -2 -43v-9h337z" />
    <glyph glyph-name="fl" unicode="fl" horiz-adv-x="635" 
d="M558 133q2 -24 15.5 -31.5t44.5 -5.5v-99q-50 -6 -101 -6q-110 0 -116 99q-1 26 -1 89v460q-23 7 -63 7q-106 0 -112 -65q-2 -14 -2 -43v-9h109v-100h-109v-429h-156v429h-47v100h47v7q0 34 1 52q15 166 270 166q136 0 218 -28v-544q0 -35 2 -49z" />
    <glyph glyph-name=".notdef" horiz-adv-x="500" 
d="M0 0v700h500v-700h-500zM250 395l170 255h-340zM280 350l170 -255v510zM80 50h340l-170 255zM50 605v-510l170 255z" />
    <glyph glyph-name=".null" horiz-adv-x="0" 
 />
    <glyph glyph-name="nonmarkingreturn" horiz-adv-x="333" 
 />
    <glyph glyph-name="space" unicode=" " horiz-adv-x="186" 
 />
    <glyph glyph-name="exclam" unicode="!" horiz-adv-x="271" 
d="M197 203h-123l-12 487h147zM135 152q37 0 60.5 -23t23.5 -60t-23.5 -60t-60.5 -23t-60 23t-23 60t23 60t60 23z" />
    <glyph glyph-name="quotedbl" unicode="&#x22;" horiz-adv-x="392" 
d="M164 451h-106l-15 284h135zM341 451h-106l-14 284h135z" />
    <glyph glyph-name="numbersign" unicode="#" 
d="M467 399l-23 -107h97v-86h-115l-44 -206h-91l44 206h-88l-44 -206h-91l44 206h-85v86h103l23 107h-96v86h114l44 205h91l-44 -205h88l44 205h91l-44 -205h86v-86h-104zM376 399h-88l-23 -107h88z" />
    <glyph glyph-name="dollar" unicode="$" 
d="M596 186q0 -84 -62 -136t-163 -62v-78h-90v78q-104 9 -165.5 61t-70.5 148h150q13 -77 86 -96v183q-106 36 -157 84t-51 128q0 90 59 142t149 63v79h90v-78q101 -11 156 -66t66 -143h-151q-10 77 -71 96v-175q121 -39 173 -90.5t52 -137.5zM218 513q0 -32 15.5 -50.5
t47.5 -31.5v160q-63 -16 -63 -78zM371 263v-165q73 14 73 79q0 59 -73 86z" />
    <glyph glyph-name="percent" unicode="%" horiz-adv-x="772" 
d="M191 703q73 0 115 -44t42 -122t-42 -122.5t-115 -44.5q-74 0 -115.5 44t-41.5 123q0 78 41.5 122t115.5 44zM223 0h-114l447 690h114zM191 625q-55 0 -55 -88q0 -89 55 -89t55 89q0 88 -55 88zM581 319q74 0 115.5 -44t41.5 -122q0 -79 -41.5 -123t-115.5 -44
q-73 0 -115 44.5t-42 122.5t42 122t115 44zM581 241q-55 0 -55 -88q0 -89 55 -89t55 89q0 88 -55 88z" />
    <glyph glyph-name="ampersand" unicode="&#x26;" horiz-adv-x="680" 
d="M675 411v-122h-93v-277q-117 -26 -252 -26q-281 0 -281 191q0 71 44.5 117t120.5 59q-56 16 -91 58t-35 97q0 93 69.5 144.5t193.5 51.5q62 0 105 -10v-114q-47 8 -102 8q-101 0 -101 -87q0 -43 23.5 -65t63.5 -24q18 -1 57 -1h28v86h157v-86h93zM214 197q0 -52 30 -73.5
t90 -21.5q49 0 91 8v179h-40q-33 0 -53 -1q-118 -8 -118 -91z" />
    <glyph glyph-name="quotesingle" unicode="'" horiz-adv-x="209" 
d="M153 451h-106l-14 284h135z" />
    <glyph glyph-name="parenleft" unicode="(" horiz-adv-x="381" 
d="M262 780h81q-132 -195 -132 -430t132 -430h-81q-148 168 -148 430t148 430z" />
    <glyph glyph-name="parenright" unicode=")" horiz-adv-x="379" 
d="M35 780h81q147 -169 147 -430t-147 -430h-81q132 195 132 430t-132 430z" />
    <glyph glyph-name="asterisk" unicode="*" horiz-adv-x="613" 
d="M345 322l131 57l31 -98l-140 -32l103 -119l-83 -60l-81 132l-80 -132l-83 60l103 119l-140 32l31 98l131 -57l-13 153h103z" />
    <glyph glyph-name="plus" unicode="+" 
d="M542 277h-176v-199h-90v199h-176v80h176v199h90v-199h176v-80z" />
    <glyph glyph-name="comma" unicode="," horiz-adv-x="255" 
d="M201 144l-104 -267h-124l79 277h149v-10z" />
    <glyph glyph-name="hyphen" unicode="-" horiz-adv-x="304" 
d="M272 240h-240v86h240v-86z" />
    <glyph glyph-name="period" unicode="." horiz-adv-x="255" 
d="M130 168q40 0 65.5 -25t25.5 -66q0 -40 -25.5 -65.5t-65.5 -25.5t-65.5 25.5t-25.5 65.5t25.5 65.5t65.5 25.5z" />
    <glyph glyph-name="slash" unicode="/" horiz-adv-x="335" 
d="M89 -30h-94l251 750h94z" />
    <glyph glyph-name="zero" unicode="0" 
d="M321 704q276 0 276 -359t-276 -359t-276 359t276 359zM321 102q57 0 84 57.5t27 185.5q0 129 -27 186t-84 57t-84 -57t-27 -186q0 -128 27 -185.5t84 -57.5z" />
    <glyph glyph-name="one" unicode="1" 
d="M483 690v-690h-157v526l-205 -110v143l165 96q61 35 124 35h73z" />
    <glyph glyph-name="two" unicode="2" 
d="M301 123h275v-123h-517v71l225 217q75 72 104 116t29 92q0 43 -23.5 68.5t-65.5 25.5q-88 0 -99 -117l-1 -10h-157l1 10q11 113 80 173t190 60q115 0 177.5 -54.5t62.5 -147.5q0 -63 -35.5 -120.5t-133.5 -151.5z" />
    <glyph glyph-name="three" unicode="3" 
d="M444 365q145 -32 145 -163q0 -98 -75.5 -157t-198.5 -59t-195 57t-83 162l-1 10h157l1 -10q8 -46 39 -74.5t79 -28.5q50 0 81 26.5t31 68.5q0 96 -127 101h-25v105l25 1q52 3 81.5 30t29.5 70q0 39 -23.5 61.5t-64.5 22.5q-42 0 -66.5 -27.5t-28.5 -72.5l-1 -10h-156
l1 10q10 95 78 155.5t189 60.5q114 0 175.5 -51.5t61.5 -130.5q0 -126 -129 -157z" />
    <glyph glyph-name="four" unicode="4" 
d="M607 159h-85v-159h-157v159h-328v85l316 446h169v-408h85v-123zM365 282v237q-24 -42 -42 -68l-120 -169h162z" />
    <glyph glyph-name="five" unicode="5" 
d="M361 466q107 0 168 -63t61 -172q0 -114 -79 -179.5t-189 -65.5q-242 0 -264 205l-1 10h157l1 -10q13 -89 98 -89q53 0 82.5 34t29.5 90t-29 90t-80 34q-74 0 -102 -71h-145l50 411h443v-122h-314l-25 -174l31 46q44 26 107 26z" />
    <glyph glyph-name="six" unicode="6" 
d="M367 463q110 0 168 -62.5t58 -160.5q0 -118 -78 -186t-191 -68q-137 0 -205 83t-68 258q0 181 80 279t211 98q107 0 169.5 -52t73.5 -144l1 -10h-158l-2 10q-22 80 -93 80q-115 0 -122 -225l33 62q47 38 123 38zM322 102q49 0 77.5 34t28.5 85q0 58 -28 92t-79 34
q-44 0 -74 -32.5t-30 -89.5q0 -55 28.5 -89t76.5 -34z" />
    <glyph glyph-name="seven" unicode="7" 
d="M598 690v-85l-326 -605h-171l311 568h-357v122h543z" />
    <glyph glyph-name="eight" unicode="8" 
d="M461 366q57 -19 94 -63t37 -108q0 -107 -75.5 -158.5t-197.5 -51.5q-127 0 -198.5 51t-71.5 159q0 64 38 107.5t96 63.5q-101 35 -101 145q0 87 66 140t182 53t181 -53t65 -140q0 -107 -115 -145zM328 588q-38 0 -61.5 -22.5t-23.5 -60.5q0 -41 22 -64t62 -23t64 23
t24 64q0 38 -23.5 60.5t-63.5 22.5zM321 101q108 0 108 99q0 47 -28 75.5t-81 28.5q-49 0 -78 -28t-29 -74q0 -48 28.5 -74.5t79.5 -26.5z" />
    <glyph glyph-name="nine" unicode="9" 
d="M318 704q136 0 204 -83t68 -258q0 -182 -78.5 -279.5t-212.5 -97.5q-109 0 -171 52t-71 145l-1 10h158l2 -10q17 -81 93 -81q115 0 122 226l-34 -63q-48 -38 -122 -38q-110 0 -168 62.5t-58 160.5q0 118 78 186t191 68zM321 343q44 0 73.5 32.5t29.5 89.5q0 55 -28.5 89
t-76.5 34q-49 0 -77 -34t-28 -85q0 -57 27.5 -91.5t79.5 -34.5z" />
    <glyph glyph-name="colon" unicode=":" horiz-adv-x="255" 
d="M130 547q40 0 65.5 -25.5t25.5 -65.5t-25.5 -65.5t-65.5 -25.5t-65.5 25.5t-25.5 65.5t25.5 65.5t65.5 25.5zM130 168q40 0 65.5 -25t25.5 -66q0 -40 -25.5 -65.5t-65.5 -25.5t-65.5 25.5t-25.5 65.5t25.5 65.5t65.5 25.5z" />
    <glyph glyph-name="semicolon" unicode=";" horiz-adv-x="255" 
d="M130 547q40 0 65.5 -25.5t25.5 -65.5t-25.5 -65.5t-65.5 -25.5t-65.5 25.5t-25.5 65.5t25.5 65.5t65.5 25.5zM201 139l-104 -262h-124l79 280h149v-18z" />
    <glyph glyph-name="less" unicode="&#x3c;" 
d="M560 402l-355 -136l355 -137v-106l-454 183v119l454 183v-106z" />
    <glyph glyph-name="equal" unicode="=" 
d="M557 377h-472v80h472v-80zM557 177h-472v80h472v-80z" />
    <glyph glyph-name="greater" unicode="&#x3e;" 
d="M523 325v-119l-453 -183v105l354 137l-354 136v107z" />
    <glyph glyph-name="question" unicode="?" horiz-adv-x="567" 
d="M287 704q111 0 173.5 -50.5t62.5 -139.5q0 -56 -24.5 -98t-81.5 -91q-41 -36 -56.5 -60t-19.5 -62h-131q2 54 17.5 88t51.5 74q45 48 62 77.5t17 59.5q0 86 -81 86q-82 0 -88 -109h-158q3 105 72 165t184 60zM277 152q37 0 60.5 -23t23.5 -60t-23.5 -60t-60.5 -23t-60 23
t-23 60t23 60t60 23z" />
    <glyph glyph-name="at" unicode="@" horiz-adv-x="911" 
d="M685 470l-40 -165q-15 -67 -15 -91q0 -58 40 -58q42 0 70.5 48t28.5 135q0 126 -75 196.5t-202 70.5q-89 0 -167.5 -40.5t-130 -122.5t-51.5 -188q0 -138 78.5 -216.5t218.5 -78.5q136 0 230 69l33 -76q-124 -80 -275 -80q-70 0 -135 21.5t-121.5 64.5t-90.5 118t-34 172
q0 193 130 318.5t318 125.5q172 0 271.5 -100.5t99.5 -245.5q0 -142 -65 -209.5t-165 -67.5q-112 0 -139 93l-28 -58q-41 -33 -91 -33q-59 0 -98 39t-39 128q0 106 55.5 177.5t141.5 71.5q56 0 79 -28l15 -54l20 64h133zM430 180q45 0 62 69l14 63q7 33 -2.5 50.5
t-32.5 17.5q-36 0 -59.5 -37.5t-23.5 -92.5q0 -70 42 -70z" />
    <glyph glyph-name="A" unicode="A" horiz-adv-x="690" 
d="M466 195h-225l-64 -195h-167l249 690h194l246 -690h-170zM354 554l-74 -236h147z" />
    <glyph glyph-name="B" unicode="B" horiz-adv-x="668" 
d="M508 373q130 -34 130 -166q0 -89 -57 -141t-136 -62q-34 -4 -98 -4h-262v690h263q54 0 89 -4q83 -10 129.5 -57t46.5 -117q0 -102 -105 -139zM242 568v-156h94q25 0 46 3q67 11 67 76q0 64 -68 74q-21 3 -48 3h-91zM397 124q33 2 55 25t22 60q0 40 -22 61.5t-58 24.5
q-16 2 -48 2h-104v-174h110q32 0 45 1z" />
    <glyph glyph-name="C" unicode="C" horiz-adv-x="725" 
d="M390 704q138 0 215.5 -66t88.5 -173l1 -10h-157l-2 10q-25 123 -148 123q-77 0 -124 -63t-47 -175q0 -124 47.5 -186t122.5 -62q120 0 146 131l2 10h157l-1 -10q-12 -116 -95 -181.5t-215 -65.5q-145 0 -237 94.5t-92 260.5q0 169 95.5 266t242.5 97z" />
    <glyph glyph-name="D" unicode="D" horiz-adv-x="739" 
d="M421 686q129 -14 208.5 -97t79.5 -235q0 -153 -81 -244t-208 -106q-35 -4 -88 -4h-247v690h248q53 0 88 -4zM382 125q74 8 118 68.5t44 158.5q0 95 -43 150t-118 63q-35 3 -70 3h-71v-445h70q47 0 70 2z" />
    <glyph glyph-name="E" unicode="E" horiz-adv-x="626" 
d="M597 123v-123h-512v690h502v-122h-345v-161h322v-122h-322v-162h355z" />
    <glyph glyph-name="F" unicode="F" horiz-adv-x="603" 
d="M242 568v-161h312v-122h-312v-285h-157v690h502v-122h-345z" />
    <glyph glyph-name="G" unicode="G" horiz-adv-x="747" 
d="M407 359h289v-359h-124l-12 109l-31 -72q-55 -51 -164 -51q-143 0 -228 94t-85 261q0 169 98 266t247 97q138 0 215.5 -66t88.5 -173l1 -10h-156l-2 10q-25 123 -149 123q-78 0 -128 -63t-50 -175q0 -124 49 -186t127 -62q60 0 100.5 34.5t53.5 100.5h-140v122z" />
    <glyph glyph-name="H" unicode="H" horiz-adv-x="760" 
d="M700 690v-690h-156v277h-302v-277h-157v690h157v-290h302v290h156z" />
    <glyph glyph-name="I" unicode="I" horiz-adv-x="302" 
d="M242 0h-157v690h157v-690z" />
    <glyph glyph-name="J" unicode="J" horiz-adv-x="615" 
d="M562 690v-400q0 -52 -3 -99q-6 -95 -69 -150t-186 -55q-125 0 -187.5 62.5t-65.5 175.5l-1 33h156l2 -33q4 -65 30 -93.5t73 -28.5q84 0 92 98q2 23 2 70v420h157z" />
    <glyph glyph-name="K" unicode="K" horiz-adv-x="710" 
d="M409 362l290 -362h-199l-205 274l-53 -59v-215h-157v690h157v-320l282 320h187z" />
    <glyph glyph-name="L" unicode="L" horiz-adv-x="615" 
d="M597 132v-132h-512v690h157v-558h355z" />
    <glyph glyph-name="M" unicode="M" horiz-adv-x="909" 
d="M849 690v-690h-157v306q0 158 2 229q-23 -114 -57 -228l-87 -307h-166l-89 307q-37 128 -55 227q2 -71 2 -228v-306h-157v690h246l139 -541l139 541h240z" />
    <glyph glyph-name="N" unicode="N" horiz-adv-x="775" 
d="M715 0h-209l-270 494q6 -88 6 -194v-300h-157v690h201l278 -508q-5 90 -5 201v307h156v-690z" />
    <glyph glyph-name="O" unicode="O" horiz-adv-x="775" 
d="M399 704q159 0 252.5 -97t93.5 -262q0 -164 -93.5 -261.5t-252.5 -97.5q-160 0 -253.5 97.5t-93.5 261.5q0 165 93.5 262t253.5 97zM399 102q86 0 135 64t49 179t-49 179t-135 64q-87 0 -136 -63.5t-49 -179.5q0 -115 49 -179t136 -64z" />
    <glyph glyph-name="P" unicode="P" horiz-adv-x="633" 
d="M437 685q82 -10 135 -65t53 -149q0 -93 -54 -148.5t-134 -65.5q-44 -5 -103 -5h-92v-252h-157v690h249q59 0 103 -5zM383 377q78 10 78 94t-78 94q-14 2 -55 2h-86v-192h86q41 0 55 2z" />
    <glyph glyph-name="Q" unicode="Q" horiz-adv-x="777" 
d="M646 114q56 -14 114 -63l-77 -100q-48 30 -77 40.5t-63 10.5q-31 0 -73 -9q-31 -7 -71 -7q-160 0 -253.5 97.5t-93.5 261.5q0 165 93.5 262.5t253.5 97.5q159 0 252.5 -97.5t93.5 -262.5q0 -147 -99 -231zM214 345q0 -115 49 -179t136 -64q86 0 135 64t49 179
q0 116 -49 180t-135 64q-87 0 -136 -64t-49 -180z" />
    <glyph glyph-name="R" unicode="R" horiz-adv-x="666" 
d="M602 171q13 -117 51 -171h-171q-25 71 -33 147q-14 117 -90 123q-19 1 -55 1h-62v-271h-157v690h262q59 0 104 -5q83 -10 133 -54t50 -129q0 -131 -137 -170q50 -19 74.5 -58.5t30.5 -102.5zM242 386h81q39 0 53 1q94 9 94 90q0 44 -23 64t-65 25q-28 2 -53 2h-87v-182z
" />
    <glyph glyph-name="S" unicode="S" horiz-adv-x="616" 
d="M320 704q122 0 186.5 -60t76.5 -161h-158q-6 49 -34 77t-76 28q-38 0 -61 -18.5t-23 -54.5q0 -40 32 -63.5t114 -42.5q112 -27 165 -80.5t53 -136.5q0 -96 -76.5 -151t-186.5 -55q-130 0 -207 56t-86 165h158q10 -51 46 -78t86 -27q44 0 73 21t29 56q0 37 -29 62t-97 41
q-122 30 -180 77.5t-58 140.5t74 148.5t179 55.5z" />
    <glyph glyph-name="T" unicode="T" horiz-adv-x="627" 
d="M635 568h-230v-568h-156v568h-230v122h616v-122z" />
    <glyph glyph-name="U" unicode="U" horiz-adv-x="709" 
d="M663 690v-399q0 -52 -3 -88q-7 -95 -78 -156t-213 -61t-213.5 60.5t-78.5 156.5q-2 36 -2 88v399h156v-422q0 -32 1 -46q10 -120 137 -120q63 0 97.5 31.5t38.5 88.5q2 14 2 46v422h156z" />
    <glyph glyph-name="V" unicode="V" horiz-adv-x="712" 
d="M472 0h-194l-246 690h170l175 -569l178 569h166z" />
    <glyph glyph-name="W" unicode="W" horiz-adv-x="1000" 
d="M1008 690l-180 -690h-208l-104 559l-111 -559h-209l-170 690h168l106 -568l107 558h223l104 -563l113 573h161z" />
    <glyph glyph-name="X" unicode="X" horiz-adv-x="694" 
d="M513 0l-160 249l-149 -249h-187l247 348l-230 342h182l143 -244l153 244h180l-241 -339l245 -351h-183z" />
    <glyph glyph-name="Y" unicode="Y" horiz-adv-x="643" 
d="M415 266v-266h-156v264l-244 426h177l150 -288l144 288h172z" />
    <glyph glyph-name="Z" unicode="Z" horiz-adv-x="634" 
d="M606 123v-123h-555v119l362 449h-334v122h522v-121l-358 -446h363z" />
    <glyph glyph-name="bracketleft" unicode="[" horiz-adv-x="384" 
d="M352 780v-86h-156v-688h156v-86h-246v860h246z" />
    <glyph glyph-name="backslash" unicode="\" horiz-adv-x="335" 
d="M340 -30h-94l-251 750h94z" />
    <glyph glyph-name="bracketright" unicode="]" horiz-adv-x="381" 
d="M275 -80h-245v86h156v688h-156v86h245v-860z" />
    <glyph glyph-name="asciicircum" unicode="^" 
d="M442 215l-122 314l-123 -314h-99l171 401h103l171 -401h-101z" />
    <glyph glyph-name="underscore" unicode="_" horiz-adv-x="500" 
d="M450 -88h-400v86h400v-86z" />
    <glyph glyph-name="grave" unicode="`" horiz-adv-x="300" 
d="M210 573h-86l-138 122h140z" />
    <glyph glyph-name="a" unicode="a" horiz-adv-x="573" 
d="M370 0l-11 78l-24 -57q-55 -35 -132 -35q-71 0 -121 41.5t-50 114.5q0 88 75.5 136t215.5 48h34v9q0 28 -2 46q-2 25 -21 41.5t-53 16.5q-74 0 -80 -83h-150q2 89 68.5 140t167.5 51q209 0 223 -164q3 -37 3 -86v-162q0 -61 10 -135h-153zM265 94q38 0 65 26.5t27 73.5
v39q-75 6 -119.5 -13.5t-44.5 -64.5q0 -29 19.5 -45t52.5 -16z" />
    <glyph glyph-name="b" unicode="b" horiz-adv-x="655" 
d="M393 547q109 0 172.5 -74.5t63.5 -194.5q0 -138 -73 -215t-181 -77q-80 0 -124 28l-35 56v-70h-157v735h157v-282l40 59q46 35 137 35zM338 94q59 0 94.5 45t35.5 129q0 78 -34.5 124.5t-90.5 46.5q-58 0 -92.5 -39.5t-34.5 -126.5v-24q0 -80 35.5 -117.5t86.5 -37.5z
" />
    <glyph glyph-name="c" unicode="c" horiz-adv-x="573" 
d="M299 547q109 0 176 -59.5t73 -151.5h-153q-16 103 -100 103q-51 0 -79.5 -42t-28.5 -125q0 -90 28.5 -134t79.5 -44q37 0 63 24.5t35 70.5h155q-15 -98 -85 -150.5t-177 -52.5q-115 0 -187.5 72t-72.5 204q0 133 77.5 209t195.5 76z" />
    <glyph glyph-name="d" unicode="d" horiz-adv-x="656" 
d="M596 735v-735h-157v80l-40 -59q-46 -35 -137 -35q-109 0 -172.5 75t-63.5 195q0 137 73 214t181 77q80 0 124 -28l35 -56v272h157zM312 94q58 0 92.5 40t34.5 126v25q0 79 -36 116.5t-86 37.5q-59 0 -94.5 -45t-35.5 -129q0 -78 34.5 -124.5t90.5 -46.5z" />
    <glyph glyph-name="e" unicode="e" horiz-adv-x="588" 
d="M560 276q0 -22 -3 -50h-374q6 -72 35 -102t77 -30q41 0 67.5 21t33.5 59h155q-21 -91 -90.5 -139.5t-168.5 -48.5q-117 0 -191.5 72t-74.5 207q0 122 75.5 202t200.5 80q122 0 190 -79t68 -192zM295 439q-89 0 -108 -114h210q-14 114 -102 114z" />
    <glyph glyph-name="f" unicode="f" horiz-adv-x="356" 
d="M235 589q-2 -14 -2 -44v-16h109v-100h-109v-429h-156v429h-57v100h57v14q0 42 1 60q13 151 213 151q29 0 60 -7v-106q-50 9 -81 -4.5t-35 -47.5z" />
    <glyph glyph-name="g" unicode="g" horiz-adv-x="656" 
d="M596 533v-398q0 -74 -1 -103q-4 -125 -81.5 -187.5t-212.5 -62.5q-118 0 -185 47.5t-76 136.5l-1 10h152l1 -9q4 -32 34 -50.5t79 -18.5q59 0 94 29t38 87q2 38 2 67v14l-40 -59q-48 -35 -129 -35q-111 0 -177.5 71t-66.5 190q0 137 72.5 211t181.5 74q80 0 124 -28
l35 -56v70h157zM312 109q58 0 92.5 40t34.5 126v10q0 79 -36 116.5t-86 37.5q-60 0 -95 -40.5t-35 -124.5q0 -77 34 -121t91 -44z" />
    <glyph glyph-name="h" unicode="h" horiz-adv-x="631" 
d="M573 400q5 -34 5 -99v-301h-157v277q0 47 -2 74q-7 88 -95 88q-49 -1 -78.5 -48t-29.5 -144v-247h-157v740h157v-291l44 64q51 34 124 34q83 0 131.5 -38.5t57.5 -108.5z" />
    <glyph glyph-name="i" unicode="i" horiz-adv-x="276" 
d="M137 739q38 0 61 -21.5t23 -57.5q0 -37 -23 -58.5t-61 -21.5t-60.5 21.5t-22.5 58.5q0 36 22.5 57.5t60.5 21.5zM216 0h-157v533h157v-533z" />
    <glyph glyph-name="j" unicode="j" horiz-adv-x="270" 
d="M135 739q83 0 83 -79q0 -80 -83 -80q-84 0 -84 80q0 79 84 79zM213 533v-532q0 -29 -2 -65q-6 -72 -52 -109t-144 -37q-30 0 -56 3v109q48 -5 70 6.5t25 43.5q2 14 2 47v534h157z" />
    <glyph glyph-name="k" unicode="k" horiz-adv-x="605" 
d="M257 204l-41 -45v-159h-157v735h157v-436l202 234h186l-231 -246l234 -287h-195z" />
    <glyph glyph-name="l" unicode="l" horiz-adv-x="291" 
d="M212 735v-553q0 -35 1 -49q2 -19 14.5 -25t46.5 -5v-107q-50 -5 -94 -5q-117 0 -123 99q-2 26 -2 89v556h157z" />
    <glyph glyph-name="m" unicode="m" horiz-adv-x="938" 
d="M880 414q5 -34 5 -99v-315h-157v275q0 45 -4 81q-9 83 -84 83q-90 0 -90 -162v-277h-156v275q0 45 -4 81q-11 83 -85 83q-89 0 -89 -162v-277h-157v533h157v-83l40 66q47 31 115 31q64 0 106.5 -28t59.5 -75l54 72q46 31 114 31q75 0 120 -37.5t55 -95.5z" />
    <glyph glyph-name="n" unicode="n" horiz-adv-x="631" 
d="M573 400q5 -34 5 -99v-301h-157v277q0 47 -2 74q-7 88 -95 88q-49 0 -78.5 -47.5t-29.5 -144.5v-247h-157v533h157v-84l44 64q51 34 124 34q83 0 131.5 -38.5t57.5 -108.5z" />
    <glyph glyph-name="o" unicode="o" horiz-adv-x="613" 
d="M307 547q130 0 205.5 -77t75.5 -203t-75.5 -203.5t-205.5 -77.5q-131 0 -206 77t-75 204q0 126 75 203t206 77zM307 94q56 0 87.5 45t31.5 128t-31.5 127.5t-87.5 44.5q-57 0 -88.5 -44.5t-31.5 -127.5t31.5 -128t88.5 -45z" />
    <glyph glyph-name="p" unicode="p" horiz-adv-x="655" 
d="M393 547q109 0 172.5 -74.5t63.5 -194.5q0 -138 -73 -215t-181 -77q-80 0 -124 28l-35 56v-266h-157v729h157v-80l40 59q46 35 137 35zM338 94q59 0 94.5 45t35.5 129q0 78 -34.5 124.5t-90.5 46.5q-58 0 -92.5 -39.5t-34.5 -126.5v-24q0 -80 35.5 -117.5t86.5 -37.5z
" />
    <glyph glyph-name="q" unicode="q" horiz-adv-x="656" 
d="M596 533v-729h-157v276l-40 -59q-46 -35 -137 -35q-109 0 -172.5 75t-63.5 195q0 137 73 214t181 77q80 0 124 -28l35 -56v70h157zM312 94q58 0 92.5 40t34.5 126v25q0 79 -36 116.5t-86 37.5q-59 0 -94.5 -45t-35.5 -129q0 -78 34.5 -124.5t90.5 -46.5z" />
    <glyph glyph-name="r" unicode="r" horiz-adv-x="398" 
d="M353 547q16 0 40 -4v-127q-94 6 -135.5 -37.5t-41.5 -155.5v-223h-157v533h157v-102l40 74q40 42 97 42z" />
    <glyph glyph-name="s" unicode="s" horiz-adv-x="511" 
d="M263 547q94 0 150 -46.5t66 -122.5h-155q-14 69 -71 69q-25 0 -40 -14t-15 -35q0 -27 26.5 -44.5t97.5 -35.5q84 -21 126.5 -59.5t42.5 -109.5q0 -80 -63.5 -121.5t-162.5 -41.5q-105 0 -170 45t-75 133h155q8 -37 32.5 -57t58.5 -20q30 0 49 13t19 37q0 28 -28.5 46
t-99.5 35q-80 20 -122.5 58t-42.5 103q0 78 60.5 123t161.5 45z" />
    <glyph glyph-name="t" unicode="t" horiz-adv-x="378" 
d="M247 429v-224q0 -36 1 -50q3 -40 22.5 -52t79.5 -8v-100q-51 -8 -97 -8q-85 0 -120.5 27.5t-40.5 88.5q-2 27 -2 81v245h-81v100h81v134h157v-134h113v-100h-113z" />
    <glyph glyph-name="u" unicode="u" horiz-adv-x="628" 
d="M568 533v-533h-156v91l-45 -71q-51 -34 -124 -34q-79 0 -128.5 38.5t-59.5 96.5q-5 34 -5 99v313h156v-279q0 -37 4 -73q11 -86 96 -86q49 0 77.5 40.5t28.5 112.5v285h156z" />
    <glyph glyph-name="v" unicode="v" horiz-adv-x="585" 
d="M589 533l-208 -533h-172l-209 533h174l123 -412l122 412h170z" />
    <glyph glyph-name="w" unicode="w" horiz-adv-x="847" 
d="M852 533l-169 -533h-176l-80 387l-81 -387h-177l-169 533h174l83 -402l77 399h187l81 -400l81 403h169z" />
    <glyph glyph-name="x" unicode="x" horiz-adv-x="563" 
d="M376 269l185 -269h-183l-98 174l-102 -174h-180l187 270l-180 263h183l96 -167l95 167h180z" />
    <glyph glyph-name="y" unicode="y" horiz-adv-x="584" 
d="M589 533l-213 -544q-45 -115 -96 -157t-139 -42q-39 0 -68 4v105q14 -2 44 -2q68 0 95 62l7 17l-219 557h175l122 -412l121 412h171z" />
    <glyph glyph-name="z" unicode="z" horiz-adv-x="510" 
d="M481 101v-101h-450v95l280 333h-264v101h431v-100l-278 -328h281z" />
    <glyph glyph-name="braceleft" unicode="{" horiz-adv-x="398" 
d="M338 694h-20q-39 0 -53 -8.5t-14 -33.5q0 -21 10 -92q12 -76 12 -108q0 -82 -85 -100q85 -18 85 -104q0 -32 -12 -108q-10 -70 -10 -92q0 -25 14 -33.5t53 -8.5h20v-86h-41q-72 0 -104 27t-32 87q0 30 12 116q10 63 10 95q0 57 -82 62v86q82 6 82 62q0 32 -10 95
q-12 86 -12 117q0 60 32 86.5t104 26.5h41v-86z" />
    <glyph glyph-name="bar" unicode="|" horiz-adv-x="297" 
d="M199 -200h-101v1000h101v-1000z" />
    <glyph glyph-name="braceright" unicode="}" horiz-adv-x="398" 
d="M298 393v-86q-82 -5 -82 -62q0 -29 9 -95q12 -76 12 -116q0 -60 -31.5 -87t-103.5 -27h-41v86h19q40 0 54 8.5t14 33.5q0 24 -11 92q-11 80 -11 108q0 84 84 100q-84 18 -84 104q0 28 11 108q11 70 11 92q0 25 -14 33.5t-54 8.5h-19v86h41q72 0 103.5 -26.5t31.5 -86.5
q0 -41 -12 -117q-9 -66 -9 -95q0 -56 82 -62z" />
    <glyph glyph-name="asciitilde" unicode="~" 
d="M472 394h86q0 -171 -127 -171q-29 0 -53.5 9t-69.5 32q-66 35 -91 35q-46 0 -46 -76h-86q0 171 126 171q21 0 42.5 -6t36 -12.5t45.5 -22.5q65 -35 91 -35q24 0 35 17.5t11 58.5z" />
    <glyph glyph-name="exclamdown" unicode="&#xa1;" horiz-adv-x="271" 
d="M135 378q-37 0 -60 23t-23 60t23 60t60 23t60.5 -23t23.5 -60t-23.5 -60t-60.5 -23zM74 328h123l12 -488h-147z" />
    <glyph glyph-name="cent" unicode="&#xa2;" horiz-adv-x="637" 
d="M371 429v-327q58 25 71 87h140q-13 -86 -68.5 -137t-142.5 -63v-79h-90v78q-99 13 -160 85t-61 187q0 117 61.5 190.5t159.5 89.5v80h90v-78q93 -10 149.5 -67.5t61.5 -141.5h-138q-11 73 -73 96zM206 270q0 -128 75 -165v321q-75 -37 -75 -156z" />
    <glyph glyph-name="sterling" unicode="&#xa3;" 
d="M580 123v-123h-516v109q102 19 102 114q0 33 -13 73h-80v80h45q-24 58 -24 115q0 98 66.5 155.5t174.5 57.5q113 0 172.5 -58.5t66.5 -148.5h-158q-8 91 -82 91q-35 0 -55 -24.5t-20 -59.5q0 -53 31 -128h199v-80h-171q7 -27 7 -54q0 -81 -83 -119h338z" />
    <glyph glyph-name="currency" unicode="&#xa4;" 
d="M501 301q0 -54 -28 -98l53 -53l-53 -53l-53 53q-45 -29 -99 -29t-99 29l-53 -53l-53 53l53 53q-28 44 -28 98q0 55 29 98l-54 54l53 53l53 -54q47 29 99 29t99 -29l53 54l53 -53l-54 -54q29 -43 29 -98zM321 206q38 0 62 26t24 69t-24 69t-62 26t-62.5 -26t-24.5 -69
t24.5 -69t62.5 -26z" />
    <glyph glyph-name="yen" unicode="&#xa5;" 
d="M443 374h109v-86h-153v-58h153v-86h-153v-144h-156v144h-153v86h153v58h-153v86h109l-175 316h166l135 -308l132 308h161z" />
    <glyph glyph-name="brokenbar" unicode="&#xa6;" horiz-adv-x="285" 
d="M187 350h-89v340h89v-340zM187 -160h-89v340h89v-340z" />
    <glyph glyph-name="section" unicode="&#xa7;" horiz-adv-x="613" 
d="M588 237q0 -96 -87 -146q26 -37 26 -88q0 -83 -65 -130t-164 -47q-102 0 -167.5 45.5t-75.5 133.5h155q9 -38 33.5 -58.5t57.5 -20.5q30 0 49 16t19 46q0 37 -32.5 63t-120.5 52q-96 28 -143.5 71.5t-47.5 121.5q0 96 82 146q-20 32 -20 73q0 84 61 136.5t160 52.5
q94 0 150 -47.5t66 -127.5h-155q-14 75 -69 75q-24 0 -39.5 -17t-15.5 -46q0 -40 26 -62t100 -41q114 -30 165.5 -77t51.5 -124zM293 206q60 -18 105 -39q32 19 32 56q0 36 -28 60t-94 43q-54 15 -98 35q-27 -17 -27 -60q0 -33 27 -55.5t83 -39.5z" />
    <glyph glyph-name="dieresis" unicode="&#xa8;" horiz-adv-x="300" 
d="M57 705q30 0 49 -18t19 -48t-19 -48t-49 -18t-49 18t-19 48t19 48t49 18zM243 705q30 0 49 -18t19 -48t-19 -48t-49 -18t-48.5 18t-18.5 48t18.5 48t48.5 18z" />
    <glyph glyph-name="copyright" unicode="&#xa9;" horiz-adv-x="855" 
d="M427 755q177 0 292 -112.5t115 -287.5t-115 -287.5t-292 -112.5t-291.5 113t-114.5 287t114.5 287t291.5 113zM427 669q-134 0 -221.5 -89t-87.5 -225t87.5 -224t221.5 -88q135 0 222.5 88t87.5 224q0 137 -87.5 225.5t-222.5 88.5zM436 583q91 0 145 -49t62 -132h-133
q-8 88 -79 88q-82 0 -82 -134q0 -137 85 -137q31 0 51.5 22.5t23.5 65.5h133q-13 -85 -67 -133t-147 -48q-98 0 -158.5 61.5t-60.5 167.5q0 103 62 165.5t165 62.5z" />
    <glyph glyph-name="guillemotleft" unicode="&#xab;" horiz-adv-x="662" 
d="M393 414l-137 -166l137 -166h-115l-137 166l137 166h115zM615 414l-137 -166l137 -166h-115l-137 166l137 166h115z" />
    <glyph glyph-name="logicalnot" unicode="&#xac;" 
d="M516 182h-89v127h-312v86h401v-213z" />
    <glyph glyph-name="registered" unicode="&#xae;" horiz-adv-x="492" 
d="M246 764q93 0 151.5 -59t58.5 -151t-58.5 -151t-151.5 -59t-151.5 59t-58.5 151t58.5 151t151.5 59zM246 398q67 0 110 44t43 112q0 69 -43 113t-110 44t-110 -44t-43 -113q0 -68 43 -112t110 -44zM298 554q26 -8 29 -46q4 -34 13 -54h-65q-3 14 -7 42q-3 27 -29 27h-15
v-69h-58v211h76q18 0 27 -1q69 -8 69 -59q0 -40 -40 -51zM255 569q20 3 20 25q0 23 -20 26q-6 1 -19 1h-12v-53h12q13 0 19 1z" />
    <glyph glyph-name="macron" unicode="&#xaf;" horiz-adv-x="300" 
d="M293 591h-285v85h285v-85z" />
    <glyph glyph-name="degree" unicode="&#xb0;" horiz-adv-x="315" 
d="M157 704q60 0 98 -36.5t38 -94.5t-38 -94.5t-98 -36.5q-59 0 -97 36.5t-38 94.5t38 94.5t97 36.5zM157 624q-20 0 -34.5 -14.5t-14.5 -36.5t14.5 -36.5t34.5 -14.5q21 0 35.5 14.5t14.5 36.5t-14.5 36.5t-35.5 14.5z" />
    <glyph glyph-name="plusminus" unicode="&#xb1;" 
d="M366 361h157v-86h-157v-153h-90v153h-158v86h158v151h90v-151zM523 0h-405v80h405v-80z" />
    <glyph glyph-name="acute" unicode="&#xb4;" horiz-adv-x="300" 
d="M187 573h-86l84 122h140z" />
    <glyph glyph-name="paragraph" unicode="&#xb6;" horiz-adv-x="605" 
d="M545 690v-800h-89v714h-108v-714h-90v430h-5q-39 0 -56 1q-74 4 -115.5 56.5t-41.5 127.5t41.5 127.5t115.5 56.5q17 1 56 1h292z" />
    <glyph glyph-name="periodcentered" unicode="&#xb7;" horiz-adv-x="261" 
d="M130 397q41 0 67 -26t26 -66t-26 -66t-67 -26q-40 0 -66 25.5t-26 66.5t26 66.5t66 25.5z" />
    <glyph glyph-name="cedilla" unicode="&#xb8;" horiz-adv-x="300" 
d="M192 9l-26 -50q92 -12 92 -79q0 -90 -158 -90q-34 0 -55 7v63q31 -8 57 -8q60 0 60 31q0 38 -96 31l47 95h79z" />
    <glyph glyph-name="guillemotright" unicode="&#xbb;" horiz-adv-x="637" 
d="M299 248l-137 -166h-115l137 166l-137 166h115zM522 248l-137 -166h-115l137 166l-137 166h115z" />
    <glyph glyph-name="questiondown" unicode="&#xbf;" horiz-adv-x="542" 
d="M298 381q-37 0 -60 23t-23 60t23 60t60 23t60.5 -23t23.5 -60t-23.5 -60t-60.5 -23zM288 -171q-111 0 -173 50.5t-62 140.5q0 56 24.5 98t80.5 90q41 36 56.5 60.5t19.5 62.5h131q-2 -55 -17 -89t-51 -74q-45 -48 -62 -77.5t-17 -59.5q0 -86 81 -86q82 0 88 109h157
q-3 -105 -71.5 -165t-184.5 -60z" />
    <glyph glyph-name="Agrave" unicode="&#xc0;" horiz-adv-x="690" 
d="M324 735l-136 118h140l82 -118h-86zM466 195h-225l-64 -195h-167l249 690h194l246 -690h-170zM354 554l-74 -236h147z" />
    <glyph glyph-name="Aacute" unicode="&#xc1;" horiz-adv-x="690" 
d="M393 735h-86l82 118h140zM466 195h-225l-64 -195h-167l249 690h194l246 -690h-170zM354 554l-74 -236h147z" />
    <glyph glyph-name="Acircumflex" unicode="&#xc2;" horiz-adv-x="690" 
d="M324 735h-94l63 118h127l63 -118h-95l-33 71zM466 195h-225l-64 -195h-167l249 690h194l246 -690h-170zM354 554l-74 -236h147z" />
    <glyph glyph-name="Atilde" unicode="&#xc3;" horiz-adv-x="690" 
d="M303 772q-15 0 -15 -28h-81q0 62 19.5 90t60.5 28q36 0 77 -17q34 -14 45 -14q15 0 15 28h82q0 -62 -19.5 -90t-61.5 -28q-35 0 -77 17q-34 14 -45 14zM466 195h-225l-64 -195h-167l249 690h194l246 -690h-170zM354 554l-74 -236h147z" />
    <glyph glyph-name="Adieresis" unicode="&#xc4;" horiz-adv-x="690" 
d="M264 726q-30 0 -49 18t-19 48t19 48t49 18t48.5 -18t18.5 -48t-18.5 -48t-48.5 -18zM449 726q-30 0 -49 18t-19 48t19 48t49 18t48.5 -18t18.5 -48t-18.5 -48t-48.5 -18zM466 195h-225l-64 -195h-167l249 690h194l246 -690h-170zM354 554l-74 -236h147z" />
    <glyph glyph-name="Aring" unicode="&#xc5;" horiz-adv-x="690" 
d="M356 721q-50 0 -81 27.5t-31 70.5q0 44 31.5 71.5t80.5 27.5t80.5 -27.5t31.5 -71.5q0 -43 -31 -70.5t-81 -27.5zM356 859q-17 0 -27 -11t-10 -29q0 -17 10.5 -28.5t26.5 -11.5t26.5 11.5t10.5 28.5q0 18 -10 29t-27 11zM466 195h-225l-64 -195h-167l249 690h194
l246 -690h-170zM354 554l-74 -236h147z" />
    <glyph glyph-name="AE" unicode="&#xc6;" horiz-adv-x="974" 
d="M945 123v-123h-481l-22 218h-207l-109 -218h-166l369 690h606v-122h-373l17 -161h333v-122h-321l17 -162h337zM430 340l-23 223l-111 -223h134z" />
    <glyph glyph-name="Ccedilla" unicode="&#xc7;" horiz-adv-x="725" 
d="M535 243h157l-1 -10q-11 -112 -88.5 -177t-202.5 -70l-14 -27q92 -12 92 -79q0 -90 -158 -90q-34 0 -55 7v63q31 -8 57 -8q60 0 60 31q0 38 -96 31l38 76q-123 18 -197.5 110.5t-74.5 240.5q0 169 95.5 266t242.5 97q138 0 215.5 -66t88.5 -173l1 -10h-157l-2 10
q-25 123 -148 123q-77 0 -124 -63t-47 -175q0 -124 47.5 -186t122.5 -62q120 0 146 131z" />
    <glyph glyph-name="Egrave" unicode="&#xc8;" horiz-adv-x="626" 
d="M307 735l-136 118h140l82 -118h-86zM597 123v-123h-512v690h502v-122h-345v-161h322v-122h-322v-162h355z" />
    <glyph glyph-name="Eacute" unicode="&#xc9;" horiz-adv-x="626" 
d="M376 735h-86l82 118h140zM597 123v-123h-512v690h502v-122h-345v-161h322v-122h-322v-162h355z" />
    <glyph glyph-name="Ecircumflex" unicode="&#xca;" horiz-adv-x="626" 
d="M307 735h-94l63 118h127l63 -118h-95l-33 71zM597 123v-123h-512v690h502v-122h-345v-161h322v-122h-322v-162h355z" />
    <glyph glyph-name="Edieresis" unicode="&#xcb;" horiz-adv-x="626" 
d="M247 726q-30 0 -49 18t-19 48t19 48t49 18t48.5 -18t18.5 -48t-18.5 -48t-48.5 -18zM432 726q-30 0 -49 18t-19 48t19 48t49 18t48.5 -18t18.5 -48t-18.5 -48t-48.5 -18zM597 123v-123h-512v690h502v-122h-345v-161h322v-122h-322v-162h355z" />
    <glyph glyph-name="Igrave" unicode="&#xcc;" horiz-adv-x="302" 
d="M217 735h-86l-136 118h140zM242 0h-157v690h157v-690z" />
    <glyph glyph-name="Iacute" unicode="&#xcd;" horiz-adv-x="302" 
d="M200 735h-86l82 118h140zM242 0h-157v690h157v-690z" />
    <glyph glyph-name="Icircumflex" unicode="&#xce;" horiz-adv-x="302" 
d="M131 735h-94l63 118h127l63 -118h-95l-33 71zM85 690h157v-690h-157v690z" />
    <glyph glyph-name="Idieresis" unicode="&#xcf;" horiz-adv-x="302" 
d="M71 858q30 0 48.5 -18t18.5 -48t-18.5 -48t-48.5 -18t-49 18t-19 48t19 48t49 18zM256 858q30 0 48.5 -18t18.5 -48t-18.5 -48t-48.5 -18t-49 18t-19 48t19 48t49 18zM242 0h-157v690h157v-690z" />
    <glyph glyph-name="Eth" unicode="&#xd0;" horiz-adv-x="745" 
d="M427 686q129 -14 208 -97t79 -235q0 -153 -81 -244t-207 -106q-35 -4 -88 -4h-247v296h-59v86h59v308h248q53 0 88 -4zM387 125q74 8 118.5 68.5t44.5 158.5q0 95 -43.5 150t-117.5 63q-34 3 -70 3h-72v-186h111v-86h-111v-173h71q47 0 69 2z" />
    <glyph glyph-name="Ntilde" unicode="&#xd1;" horiz-adv-x="775" 
d="M327 862q36 0 77 -17q34 -14 45 -14q15 0 15 28h82q0 -62 -19.5 -90t-61.5 -28q-35 0 -77 17q-34 14 -45 14q-15 0 -15 -28h-81q0 62 19.5 90t60.5 28zM715 0h-209l-270 494q6 -88 6 -194v-300h-157v690h201l278 -508q-5 90 -5 201v307h156v-690z" />
    <glyph glyph-name="Ograve" unicode="&#xd2;" horiz-adv-x="775" 
d="M367 735l-136 118h140l82 -118h-86zM399 704q159 0 252.5 -97t93.5 -262q0 -164 -93.5 -261.5t-252.5 -97.5q-160 0 -253.5 97.5t-93.5 261.5q0 165 93.5 262t253.5 97zM399 102q86 0 135 64t49 179t-49 179t-135 64q-87 0 -136 -63.5t-49 -179.5q0 -115 49 -179t136 -64
z" />
    <glyph glyph-name="Oacute" unicode="&#xd3;" horiz-adv-x="775" 
d="M436 735h-86l82 118h140zM399 704q159 0 252.5 -97t93.5 -262q0 -164 -93.5 -261.5t-252.5 -97.5q-160 0 -253.5 97.5t-93.5 261.5q0 165 93.5 262t253.5 97zM399 102q86 0 135 64t49 179t-49 179t-135 64q-87 0 -136 -63.5t-49 -179.5q0 -115 49 -179t136 -64z" />
    <glyph glyph-name="Ocircumflex" unicode="&#xd4;" horiz-adv-x="775" 
d="M367 735h-94l63 118h127l63 -118h-95l-33 71zM399 704q159 0 252.5 -97t93.5 -262q0 -164 -93.5 -261.5t-252.5 -97.5q-160 0 -253.5 97.5t-93.5 261.5q0 165 93.5 262t253.5 97zM399 102q86 0 135 64t49 179t-49 179t-135 64q-87 0 -136 -63.5t-49 -179.5
q0 -115 49 -179t136 -64z" />
    <glyph glyph-name="Otilde" unicode="&#xd5;" horiz-adv-x="775" 
d="M346 772q-15 0 -15 -28h-81q0 62 19.5 90t60.5 28q36 0 77 -17q34 -14 45 -14q15 0 15 28h82q0 -62 -19.5 -90t-61.5 -28q-34 0 -77 17q-34 14 -45 14zM399 704q159 0 252.5 -97t93.5 -262q0 -164 -93.5 -261.5t-252.5 -97.5q-160 0 -253.5 97.5t-93.5 261.5
q0 165 93.5 262t253.5 97zM399 102q86 0 135 64t49 179t-49 179t-135 64q-87 0 -136 -63.5t-49 -179.5q0 -115 49 -179t136 -64z" />
    <glyph glyph-name="Odieresis" unicode="&#xd6;" horiz-adv-x="775" 
d="M307 726q-30 0 -49 18t-19 48t19 48t49 18t48.5 -18t18.5 -48t-18.5 -48t-48.5 -18zM492 726q-30 0 -49 18t-19 48t19 48t49 18t48.5 -18t18.5 -48t-18.5 -48t-48.5 -18zM399 704q159 0 252.5 -97t93.5 -262q0 -164 -93.5 -261.5t-252.5 -97.5q-160 0 -253.5 97.5
t-93.5 261.5q0 165 93.5 262t253.5 97zM399 102q86 0 135 64t49 179t-49 179t-135 64q-87 0 -136 -63.5t-49 -179.5q0 -115 49 -179t136 -64z" />
    <glyph glyph-name="multiply" unicode="&#xd7;" 
d="M384 325l150 -150l-63 -62l-150 150l-150 -150l-63 62l150 150l-150 150l63 63l150 -150l150 150l63 -63z" />
    <glyph glyph-name="Oslash" unicode="&#xd8;" horiz-adv-x="779" 
d="M752 634l-67 -67q62 -90 62 -222q0 -164 -93.5 -261.5t-253.5 -97.5q-135 0 -224 72l-65 -65l-63 63l67 67q-61 92 -61 222q0 165 93.5 262t252.5 97q138 0 225 -72l65 65zM216 345q0 -59 14 -107l297 297q-47 53 -127 53q-86 0 -135 -64t-49 -179zM585 345q0 65 -14 108
l-297 -297q48 -54 126 -54q87 0 136 64t49 179z" />
    <glyph glyph-name="Ugrave" unicode="&#xd9;" horiz-adv-x="709" 
d="M423 735h-86l-136 118h140zM663 690v-399q0 -52 -3 -88q-7 -95 -78 -156t-213 -61t-213.5 60.5t-78.5 156.5q-2 36 -2 88v399h156v-422q0 -32 1 -46q10 -120 137 -120q63 0 97.5 31.5t38.5 88.5q2 14 2 46v422h156z" />
    <glyph glyph-name="Uacute" unicode="&#xda;" horiz-adv-x="709" 
d="M406 735h-86l82 118h140zM663 690v-399q0 -52 -3 -88q-7 -95 -78 -156t-213 -61t-213.5 60.5t-78.5 156.5q-2 36 -2 88v399h156v-422q0 -32 1 -46q10 -120 137 -120q63 0 97.5 31.5t38.5 88.5q2 14 2 46v422h156z" />
    <glyph glyph-name="Ucircumflex" unicode="&#xdb;" horiz-adv-x="709" 
d="M337 735h-94l63 118h127l63 -118h-95l-33 71zM663 690v-399q0 -52 -3 -88q-7 -95 -78 -156t-213 -61t-213.5 60.5t-78.5 156.5q-2 36 -2 88v399h156v-422q0 -32 1 -46q10 -120 137 -120q63 0 97.5 31.5t38.5 88.5q2 14 2 46v422h156z" />
    <glyph glyph-name="Udieresis" unicode="&#xdc;" horiz-adv-x="709" 
d="M277 858q30 0 48.5 -18t18.5 -48t-18.5 -48t-48.5 -18t-49 18t-19 48t19 48t49 18zM462 858q30 0 48.5 -18t18.5 -48t-18.5 -48t-48.5 -18t-49 18t-19 48t19 48t49 18zM663 690v-399q0 -52 -3 -88q-7 -95 -78 -156t-213 -61t-213.5 60.5t-78.5 156.5q-2 36 -2 88v399h156
v-422q0 -32 1 -46q10 -120 137 -120q63 0 97.5 31.5t38.5 88.5q2 14 2 46v422h156z" />
    <glyph glyph-name="Yacute" unicode="&#xdd;" horiz-adv-x="643" 
d="M374 735h-86l82 118h140zM415 266v-266h-156v264l-244 426h177l150 -288l144 288h172z" />
    <glyph glyph-name="Thorn" unicode="&#xde;" horiz-adv-x="647" 
d="M445 597q80 -10 130 -61.5t50 -142.5t-50 -143t-130 -62q-44 -5 -103 -5h-100v-183h-157v690h157v-88h100q59 0 103 -5zM383 308q78 10 78 85q0 74 -78 84q-15 2 -56 2h-85v-173h85q26 0 56 2z" />
    <glyph glyph-name="germandbls" unicode="&#xdf;" horiz-adv-x="652" 
d="M328 754q119 0 186.5 -52t67.5 -137q0 -49 -27 -89q-60 -33 -60 -78q0 -37 52 -88q43 -43 59 -75t16 -85q0 -73 -57 -113.5t-140 -40.5q-79 0 -128 10v119q52 -13 94 -13q66 0 66 57q0 40 -49 88q-44 44 -61 72.5t-17 68.5q0 73 73 116q14 20 14 49q0 75 -95 75
q-47 0 -74 -26.5t-30 -76.5q-2 -28 -2 -84v-451h-157v443q0 58 2 94q7 103 78 160t189 57z" />
    <glyph glyph-name="agrave" unicode="&#xe0;" horiz-adv-x="573" 
d="M260 573l-138 122h140l84 -122h-86zM370 0l-11 78l-24 -57q-55 -35 -132 -35q-71 0 -121 41.5t-50 114.5q0 88 75.5 136t215.5 48h34v9q0 28 -2 46q-2 25 -21 41.5t-53 16.5q-74 0 -80 -83h-150q2 89 68.5 140t167.5 51q209 0 223 -164q3 -37 3 -86v-162q0 -61 10 -135
h-153zM265 94q38 0 65 26.5t27 73.5v39q-75 6 -119.5 -13.5t-44.5 -64.5q0 -29 19.5 -45t52.5 -16z" />
    <glyph glyph-name="aacute" unicode="&#xe1;" horiz-adv-x="573" 
d="M323 573h-86l84 122h140zM370 0l-11 78l-24 -57q-55 -35 -132 -35q-71 0 -121 41.5t-50 114.5q0 88 75.5 136t215.5 48h34v9q0 28 -2 46q-2 25 -21 41.5t-53 16.5q-74 0 -80 -83h-150q2 89 68.5 140t167.5 51q209 0 223 -164q3 -37 3 -86v-162q0 -61 10 -135h-153z
M265 94q38 0 65 26.5t27 73.5v39q-75 6 -119.5 -13.5t-44.5 -64.5q0 -29 19.5 -45t52.5 -16z" />
    <glyph glyph-name="acircumflex" unicode="&#xe2;" horiz-adv-x="573" 
d="M253 573h-93l63 122h127l63 -122h-94l-33 72zM370 0l-11 78l-24 -57q-55 -35 -132 -35q-71 0 -121 41.5t-50 114.5q0 88 75.5 136t215.5 48h34v9q0 28 -2 46q-2 25 -21 41.5t-53 16.5q-74 0 -80 -83h-150q2 89 68.5 140t167.5 51q209 0 223 -164q3 -37 3 -86v-162
q0 -61 10 -135h-153zM265 94q38 0 65 26.5t27 73.5v39q-75 6 -119.5 -13.5t-44.5 -64.5q0 -29 19.5 -45t52.5 -16z" />
    <glyph glyph-name="atilde" unicode="&#xe3;" horiz-adv-x="573" 
d="M233 609q-15 0 -15 -28h-81q0 62 19.5 90t60.5 28q36 0 77 -18q34 -14 45 -14q15 0 15 29h82q0 -62 -19.5 -90.5t-61.5 -28.5q-32 0 -77 18q-37 14 -45 14zM370 0l-11 78l-24 -57q-55 -35 -132 -35q-71 0 -121 41.5t-50 114.5q0 88 75.5 136t215.5 48h34v9q0 28 -2 46
q-2 25 -21 41.5t-53 16.5q-74 0 -80 -83h-150q2 89 68.5 140t167.5 51q209 0 223 -164q3 -37 3 -86v-162q0 -61 10 -135h-153zM265 94q38 0 65 26.5t27 73.5v39q-75 6 -119.5 -13.5t-44.5 -64.5q0 -29 19.5 -45t52.5 -16z" />
    <glyph glyph-name="adieresis" unicode="&#xe4;" horiz-adv-x="573" 
d="M193 573q-30 0 -49 18t-19 48t19 48t49 18t49 -18t19 -48t-19 -48t-49 -18zM379 573q-30 0 -48.5 18t-18.5 48t18.5 48t48.5 18t49 -18t19 -48t-19 -48t-49 -18zM370 0l-11 78l-24 -57q-55 -35 -132 -35q-71 0 -121 41.5t-50 114.5q0 88 75.5 136t215.5 48h34v9
q0 28 -2 46q-2 25 -21 41.5t-53 16.5q-74 0 -80 -83h-150q2 89 68.5 140t167.5 51q209 0 223 -164q3 -37 3 -86v-162q0 -61 10 -135h-153zM265 94q38 0 65 26.5t27 73.5v39q-75 6 -119.5 -13.5t-44.5 -64.5q0 -29 19.5 -45t52.5 -16z" />
    <glyph glyph-name="aring" unicode="&#xe5;" horiz-adv-x="573" 
d="M286 567q-50 0 -81 28t-31 73t31 73t81 28t81 -28t31 -73t-31 -73t-81 -28zM286 711q-17 0 -27 -11.5t-10 -31.5t10 -31.5t27 -11.5t27 11.5t10 31.5t-10 31.5t-27 11.5zM370 0l-11 78l-24 -57q-55 -35 -132 -35q-71 0 -121 41.5t-50 114.5q0 88 75.5 136t215.5 48h34v9
q0 28 -2 46q-2 25 -21 41.5t-53 16.5q-74 0 -80 -83h-150q2 89 68.5 140t167.5 51q209 0 223 -164q3 -37 3 -86v-162q0 -61 10 -135h-153zM265 94q38 0 65 26.5t27 73.5v39q-75 6 -119.5 -13.5t-44.5 -64.5q0 -29 19.5 -45t52.5 -16z" />
    <glyph glyph-name="ae" unicode="&#xe6;" horiz-adv-x="953" 
d="M925 276q0 -22 -3 -50h-375q12 -132 112 -132q42 0 68.5 21t32.5 59h155q-21 -91 -89.5 -139.5t-168.5 -48.5q-151 0 -217 115l-57 -73q-59 -42 -149 -42q-92 0 -147 41.5t-55 118.5q0 89 77 134t216 45h52v12q0 102 -88 102q-39 0 -62.5 -22t-25.5 -61h-150
q1 89 67.5 140t168.5 51q141 0 188 -93q65 93 199 93q117 0 184 -79t67 -192zM552 325h210q-14 114 -102 114q-90 0 -108 -114zM378 213v13q-96 5 -140.5 -10.5t-44.5 -57.5q0 -64 81 -64q47 0 75.5 32t28.5 87z" />
    <glyph glyph-name="ccedilla" unicode="&#xe7;" horiz-adv-x="573" 
d="M295 94q37 0 63 24.5t35 70.5h155q-14 -91 -76 -143t-156 -59l-15 -28q92 -12 92 -79q0 -90 -158 -90q-34 0 -55 7v63q31 -8 57 -8q60 0 60 31q0 38 -96 31l37 75q-96 15 -154 85.5t-58 187.5q0 133 77.5 209t195.5 76q109 0 176 -59.5t73 -151.5h-153q-16 103 -100 103
q-51 0 -79.5 -42t-28.5 -125q0 -90 28.5 -134t79.5 -44z" />
    <glyph glyph-name="egrave" unicode="&#xe8;" horiz-adv-x="588" 
d="M270 573l-138 122h140l84 -122h-86zM560 276q0 -22 -3 -50h-374q6 -72 35 -102t77 -30q41 0 67.5 21t33.5 59h155q-21 -91 -90.5 -139.5t-168.5 -48.5q-117 0 -191.5 72t-74.5 207q0 122 75.5 202t200.5 80q122 0 190 -79t68 -192zM295 439q-89 0 -108 -114h210
q-14 114 -102 114z" />
    <glyph glyph-name="eacute" unicode="&#xe9;" horiz-adv-x="588" 
d="M333 573h-86l84 122h140zM560 276q0 -22 -3 -50h-374q6 -72 35 -102t77 -30q41 0 67.5 21t33.5 59h155q-21 -91 -90.5 -139.5t-168.5 -48.5q-117 0 -191.5 72t-74.5 207q0 122 75.5 202t200.5 80q122 0 190 -79t68 -192zM295 439q-89 0 -108 -114h210q-14 114 -102 114z
" />
    <glyph glyph-name="ecircumflex" unicode="&#xea;" horiz-adv-x="588" 
d="M263 573h-93l63 122h127l63 -122h-94l-33 72zM560 276q0 -22 -3 -50h-374q6 -72 35 -102t77 -30q41 0 67.5 21t33.5 59h155q-21 -91 -90.5 -139.5t-168.5 -48.5q-117 0 -191.5 72t-74.5 207q0 122 75.5 202t200.5 80q122 0 190 -79t68 -192zM295 439q-89 0 -108 -114h210
q-14 114 -102 114z" />
    <glyph glyph-name="edieresis" unicode="&#xeb;" horiz-adv-x="588" 
d="M203 573q-30 0 -49 18t-19 48t19 48t49 18t49 -18t19 -48t-19 -48t-49 -18zM389 573q-30 0 -48.5 18t-18.5 48t18.5 48t48.5 18t49 -18t19 -48t-19 -48t-49 -18zM560 276q0 -22 -3 -50h-374q6 -72 35 -102t77 -30q41 0 67.5 21t33.5 59h155q-21 -91 -90.5 -139.5
t-168.5 -48.5q-117 0 -191.5 72t-74.5 207q0 122 75.5 202t200.5 80q122 0 190 -79t68 -192zM295 439q-89 0 -108 -114h210q-14 114 -102 114z" />
    <glyph glyph-name="igrave" unicode="&#xec;" horiz-adv-x="276" 
d="M197 573h-86l-138 122h140zM216 0h-157v533h157v-533z" />
    <glyph glyph-name="iacute" unicode="&#xed;" horiz-adv-x="276" 
d="M174 573h-86l84 122h140zM216 0h-157v533h157v-533z" />
    <glyph glyph-name="icircumflex" unicode="&#xee;" horiz-adv-x="276" 
d="M104 573h-93l63 122h127l63 -122h-94l-33 72zM59 533h157v-533h-157v533z" />
    <glyph glyph-name="idieresis" unicode="&#xef;" horiz-adv-x="276" 
d="M44 705q30 0 49 -18t19 -48t-19 -48t-49 -18t-49 18t-19 48t19 48t49 18zM230 705q30 0 49 -18t19 -48t-19 -48t-49 -18t-48.5 18t-18.5 48t18.5 48t48.5 18zM216 0h-157v533h157v-533z" />
    <glyph glyph-name="eth" unicode="&#xf0;" horiz-adv-x="643" 
d="M566 633l-42 -10q75 -107 75 -316q0 -86 -24.5 -150t-66.5 -100t-90.5 -53.5t-102.5 -17.5q-142 0 -215.5 76t-73.5 203q0 132 73.5 207t184.5 75q49 0 98 -29l44 -56q-9 74 -53 127l-129 -30l-14 67l79 19q-34 22 -72 37l130 63q63 -28 103 -63l82 19zM437 260v29
q0 67 -33.5 105t-86.5 38q-61 0 -94 -44.5t-33 -120.5q0 -165 126 -165q58 0 89.5 42t31.5 116z" />
    <glyph glyph-name="ntilde" unicode="&#xf1;" horiz-adv-x="631" 
d="M264 609q-15 0 -15 -28h-81q0 62 19.5 90t60.5 28q36 0 77 -18q34 -14 45 -14q15 0 15 29h82q0 -62 -19.5 -90.5t-61.5 -28.5q-32 0 -77 18q-37 14 -45 14zM573 400q5 -34 5 -99v-301h-157v277q0 47 -2 74q-7 88 -95 88q-49 0 -78.5 -47.5t-29.5 -144.5v-247h-157v533
h157v-84l44 64q51 34 124 34q83 0 131.5 -38.5t57.5 -108.5z" />
    <glyph glyph-name="ograve" unicode="&#xf2;" horiz-adv-x="613" 
d="M281 573l-138 122h140l84 -122h-86zM307 547q130 0 205.5 -77t75.5 -203t-75.5 -203.5t-205.5 -77.5q-131 0 -206 77t-75 204q0 126 75 203t206 77zM307 94q56 0 87.5 45t31.5 128t-31.5 127.5t-87.5 44.5q-57 0 -88.5 -44.5t-31.5 -127.5t31.5 -128t88.5 -45z" />
    <glyph glyph-name="oacute" unicode="&#xf3;" horiz-adv-x="613" 
d="M344 573h-86l84 122h140zM307 547q130 0 205.5 -77t75.5 -203t-75.5 -203.5t-205.5 -77.5q-131 0 -206 77t-75 204q0 126 75 203t206 77zM307 94q56 0 87.5 45t31.5 128t-31.5 127.5t-87.5 44.5q-57 0 -88.5 -44.5t-31.5 -127.5t31.5 -128t88.5 -45z" />
    <glyph glyph-name="ocircumflex" unicode="&#xf4;" horiz-adv-x="613" 
d="M274 573h-93l63 122h127l63 -122h-94l-33 72zM307 547q130 0 205.5 -77t75.5 -203t-75.5 -203.5t-205.5 -77.5q-131 0 -206 77t-75 204q0 126 75 203t206 77zM307 94q56 0 87.5 45t31.5 128t-31.5 127.5t-87.5 44.5q-57 0 -88.5 -44.5t-31.5 -127.5t31.5 -128t88.5 -45z
" />
    <glyph glyph-name="otilde" unicode="&#xf5;" horiz-adv-x="613" 
d="M254 609q-15 0 -15 -28h-81q0 62 19.5 90t60.5 28q36 0 77 -18q34 -14 45 -14q15 0 15 29h82q0 -62 -19.5 -90.5t-61.5 -28.5q-32 0 -77 18q-37 14 -45 14zM307 547q130 0 205.5 -77t75.5 -203t-75.5 -203.5t-205.5 -77.5q-131 0 -206 77t-75 204q0 126 75 203t206 77z
M307 94q56 0 87.5 45t31.5 128t-31.5 127.5t-87.5 44.5q-57 0 -88.5 -44.5t-31.5 -127.5t31.5 -128t88.5 -45z" />
    <glyph glyph-name="odieresis" unicode="&#xf6;" horiz-adv-x="613" 
d="M214 573q-30 0 -49 18t-19 48t19 48t49 18t49 -18t19 -48t-19 -48t-49 -18zM400 573q-30 0 -48.5 18t-18.5 48t18.5 48t48.5 18t49 -18t19 -48t-19 -48t-49 -18zM307 547q130 0 205.5 -77t75.5 -203t-75.5 -203.5t-205.5 -77.5q-131 0 -206 77t-75 204q0 126 75 203
t206 77zM307 94q56 0 87.5 45t31.5 128t-31.5 127.5t-87.5 44.5q-57 0 -88.5 -44.5t-31.5 -127.5t31.5 -128t88.5 -45z" />
    <glyph glyph-name="divide" unicode="&#xf7;" 
d="M321 572q31 0 52.5 -21t21.5 -53t-21.5 -53t-52.5 -21t-52.5 21.5t-21.5 52.5t21.5 52.5t52.5 21.5zM557 275h-472v86h472v-86zM321 210q31 0 52.5 -21t21.5 -53t-21.5 -53t-52.5 -21t-52.5 21.5t-21.5 52.5t21.5 52.5t52.5 21.5z" />
    <glyph glyph-name="oslash" unicode="&#xf8;" horiz-adv-x="634" 
d="M612 498l-65 -65q46 -69 46 -166q0 -126 -75.5 -203.5t-205.5 -77.5q-97 0 -167 45l-60 -60l-63 64l59 59q-50 70 -50 173q0 126 75.5 203t205.5 77q102 0 173 -49l64 64zM192 267q0 -29 5 -57l195 195q-31 34 -80 34q-57 0 -88.5 -44.5t-31.5 -127.5zM431 267
q0 26 -3 47l-191 -191q29 -29 75 -29q56 0 87.5 45t31.5 128z" />
    <glyph glyph-name="ugrave" unicode="&#xf9;" horiz-adv-x="628" 
d="M283 573l-138 122h140l84 -122h-86zM568 533v-533h-156v91l-45 -71q-51 -34 -124 -34q-79 0 -128.5 38.5t-59.5 96.5q-5 34 -5 99v313h156v-279q0 -37 4 -73q11 -86 96 -86q49 0 77.5 40.5t28.5 112.5v285h156z" />
    <glyph glyph-name="uacute" unicode="&#xfa;" horiz-adv-x="628" 
d="M346 573h-86l84 122h140zM568 533v-533h-156v91l-45 -71q-51 -34 -124 -34q-79 0 -128.5 38.5t-59.5 96.5q-5 34 -5 99v313h156v-279q0 -37 4 -73q11 -86 96 -86q49 0 77.5 40.5t28.5 112.5v285h156z" />
    <glyph glyph-name="ucircumflex" unicode="&#xfb;" horiz-adv-x="628" 
d="M276 573h-93l63 122h127l63 -122h-94l-33 72zM568 533v-533h-156v91l-45 -71q-51 -34 -124 -34q-79 0 -128.5 38.5t-59.5 96.5q-5 34 -5 99v313h156v-279q0 -37 4 -73q11 -86 96 -86q49 0 77.5 40.5t28.5 112.5v285h156z" />
    <glyph glyph-name="udieresis" unicode="&#xfc;" horiz-adv-x="628" 
d="M216 573q-30 0 -49 18t-19 48t19 48t49 18t49 -18t19 -48t-19 -48t-49 -18zM402 573q-30 0 -48.5 18t-18.5 48t18.5 48t48.5 18t49 -18t19 -48t-19 -48t-49 -18zM568 533v-533h-156v91l-45 -71q-51 -34 -124 -34q-79 0 -128.5 38.5t-59.5 96.5q-5 34 -5 99v313h156v-279
q0 -37 4 -73q11 -86 96 -86q49 0 77.5 40.5t28.5 112.5v285h156z" />
    <glyph glyph-name="yacute" unicode="&#xfd;" horiz-adv-x="584" 
d="M326 573h-86l84 122h140zM589 533l-213 -544q-45 -115 -96 -157t-139 -42q-39 0 -68 4v105q14 -2 44 -2q68 0 95 62l7 17l-219 557h175l122 -412l121 412h171z" />
    <glyph glyph-name="thorn" unicode="&#xfe;" horiz-adv-x="655" 
d="M393 547q109 0 172.5 -74.5t63.5 -194.5q0 -138 -73 -215t-181 -77q-80 0 -124 28l-35 56v-266h-157v931h157v-282l40 59q46 35 137 35zM338 94q59 0 94.5 45t35.5 129q0 78 -34.5 124.5t-90.5 46.5q-58 0 -92.5 -39.5t-34.5 -126.5v-24q0 -80 35.5 -117.5t86.5 -37.5z
" />
    <glyph glyph-name="ydieresis" unicode="&#xff;" horiz-adv-x="584" 
d="M196 573q-30 0 -49 18t-19 48t19 48t49 18t49 -18t19 -48t-19 -48t-49 -18zM382 573q-30 0 -48.5 18t-18.5 48t18.5 48t48.5 18t49 -18t19 -48t-19 -48t-49 -18zM589 533l-213 -544q-45 -115 -96 -157t-139 -42q-39 0 -68 4v105q14 -2 44 -2q68 0 95 62l7 17l-219 557
h175l122 -412l121 412h171z" />
    <glyph glyph-name="Amacron" unicode="&#x100;" horiz-adv-x="690" 
d="M499 759h-285v85h285v-85zM466 195h-225l-64 -195h-167l249 690h194l246 -690h-170zM354 554l-74 -236h147z" />
    <glyph glyph-name="amacron" unicode="&#x101;" horiz-adv-x="573" 
d="M429 591h-285v85h285v-85zM370 0l-11 78l-24 -57q-55 -35 -132 -35q-71 0 -121 41.5t-50 114.5q0 88 75.5 136t215.5 48h34v9q0 28 -2 46q-2 25 -21 41.5t-53 16.5q-74 0 -80 -83h-150q2 89 68.5 140t167.5 51q209 0 223 -164q3 -37 3 -86v-162q0 -61 10 -135h-153z
M265 94q38 0 65 26.5t27 73.5v39q-75 6 -119.5 -13.5t-44.5 -64.5q0 -29 19.5 -45t52.5 -16z" />
    <glyph glyph-name="Abreve" unicode="&#x102;" horiz-adv-x="690" 
d="M356 727q-58 0 -92.5 30.5t-34.5 95.5h81q3 -49 46 -49t46 49h81q0 -65 -34.5 -95.5t-92.5 -30.5zM466 195h-225l-64 -195h-167l249 690h194l246 -690h-170zM354 554l-74 -236h147z" />
    <glyph glyph-name="abreve" unicode="&#x103;" horiz-adv-x="573" 
d="M286 568q-127 0 -127 127h81q3 -50 46 -50t46 50h81q0 -127 -127 -127zM370 0l-11 78l-24 -57q-55 -35 -132 -35q-71 0 -121 41.5t-50 114.5q0 88 75.5 136t215.5 48h34v9q0 28 -2 46q-2 25 -21 41.5t-53 16.5q-74 0 -80 -83h-150q2 89 68.5 140t167.5 51q209 0 223 -164
q3 -37 3 -86v-162q0 -61 10 -135h-153zM265 94q38 0 65 26.5t27 73.5v39q-75 6 -119.5 -13.5t-44.5 -64.5q0 -29 19.5 -45t52.5 -16z" />
    <glyph glyph-name="Aogonek" unicode="&#x104;" horiz-adv-x="690" 
d="M579 -82q0 -51 42 -51q23 0 47 21v-67q-47 -44 -124 -44q-109 0 -109 86q0 46 26.5 84.5t65.5 58.5l-61 189h-225l-64 -195h-167l249 690h194l246 -690h-63q-23 -2 -40 -25.5t-17 -56.5zM354 554l-74 -236h147z" />
    <glyph glyph-name="aogonek" unicode="&#x105;" horiz-adv-x="573" 
d="M421 -82q0 -51 42 -51q23 0 47 21v-67q-47 -44 -124 -44q-109 0 -109 86q0 45 26.5 84t65.5 60l-10 71l-24 -57q-55 -35 -132 -35q-71 0 -121 41.5t-50 114.5q0 88 75.5 136t215.5 48h34v9q0 28 -2 46q-2 25 -21 41.5t-53 16.5q-74 0 -80 -83h-150q2 89 68.5 140
t167.5 51q209 0 223 -164q3 -37 3 -86v-162q0 -61 10 -135h-45q-23 -2 -40 -25.5t-17 -56.5zM265 94q38 0 65 26.5t27 73.5v39q-75 6 -119.5 -13.5t-44.5 -64.5q0 -29 19.5 -45t52.5 -16z" />
    <glyph glyph-name="Cacute" unicode="&#x106;" horiz-adv-x="725" 
d="M417 735h-86l82 118h140zM390 704q138 0 215.5 -66t88.5 -173l1 -10h-157l-2 10q-25 123 -148 123q-77 0 -124 -63t-47 -175q0 -124 47.5 -186t122.5 -62q120 0 146 131l2 10h157l-1 -10q-12 -116 -95 -181.5t-215 -65.5q-145 0 -237 94.5t-92 260.5q0 169 95.5 266
t242.5 97z" />
    <glyph glyph-name="cacute" unicode="&#x107;" horiz-adv-x="573" 
d="M324 573h-86l84 122h140zM299 547q109 0 176 -59.5t73 -151.5h-153q-16 103 -100 103q-51 0 -79.5 -42t-28.5 -125q0 -90 28.5 -134t79.5 -44q37 0 63 24.5t35 70.5h155q-15 -98 -85 -150.5t-177 -52.5q-115 0 -187.5 72t-72.5 204q0 133 77.5 209t195.5 76z" />
    <glyph glyph-name="Cdotaccent" unicode="&#x10a;" horiz-adv-x="725" 
d="M380 883q36 0 58.5 -21.5t22.5 -55.5q0 -35 -22.5 -56.5t-58.5 -21.5t-58.5 21.5t-22.5 56.5q0 34 22.5 55.5t58.5 21.5zM390 704q138 0 215.5 -66t88.5 -173l1 -10h-157l-2 10q-25 123 -148 123q-77 0 -124 -63t-47 -175q0 -124 47.5 -186t122.5 -62q120 0 146 131l2 10
h157l-1 -10q-12 -116 -95 -181.5t-215 -65.5q-145 0 -237 94.5t-92 260.5q0 169 95.5 266t242.5 97z" />
    <glyph glyph-name="cdotaccent" unicode="&#x10b;" horiz-adv-x="573" 
d="M287 739q38 0 61 -21.5t23 -57.5q0 -37 -23 -58.5t-61 -21.5t-60.5 21.5t-22.5 58.5q0 36 22.5 57.5t60.5 21.5zM299 547q109 0 176 -59.5t73 -151.5h-153q-16 103 -100 103q-51 0 -79.5 -42t-28.5 -125q0 -90 28.5 -134t79.5 -44q37 0 63 24.5t35 70.5h155
q-15 -98 -85 -150.5t-177 -52.5q-115 0 -187.5 72t-72.5 204q0 133 77.5 209t195.5 76z" />
    <glyph glyph-name="Ccaron" unicode="&#x10c;" horiz-adv-x="725" 
d="M317 735l-63 118h95l33 -71l31 71h94l-63 -118h-127zM535 243h157l-1 -10q-12 -116 -95 -181.5t-215 -65.5q-145 0 -237 94.5t-92 260.5q0 169 95.5 266t242.5 97q138 0 215.5 -66t88.5 -173l1 -10h-157l-2 10q-25 123 -148 123q-77 0 -124 -63t-47 -175
q0 -124 47.5 -186t122.5 -62q120 0 146 131z" />
    <glyph glyph-name="ccaron" unicode="&#x10d;" horiz-adv-x="573" 
d="M224 573l-63 122h94l34 -72l32 72h93l-63 -122h-127zM295 94q37 0 63 24.5t35 70.5h155q-15 -98 -85 -150.5t-177 -52.5q-115 0 -187.5 72t-72.5 204q0 133 77.5 209t195.5 76q109 0 176 -59.5t73 -151.5h-153q-16 103 -100 103q-51 0 -79.5 -42t-28.5 -125
q0 -90 28.5 -134t79.5 -44z" />
    <glyph glyph-name="Dcaron" unicode="&#x10e;" horiz-adv-x="739" 
d="M318 735l-63 118h95l33 -71l31 71h94l-63 -118h-127zM421 686q129 -14 208.5 -97t79.5 -235q0 -153 -81 -244t-208 -106q-35 -4 -88 -4h-247v690h248q53 0 88 -4zM382 125q74 8 118 68.5t44 158.5q0 95 -43 150t-118 63q-35 3 -70 3h-71v-445h70q47 0 70 2z" />
    <glyph glyph-name="dcaron" unicode="&#x10f;" horiz-adv-x="656" 
d="M799 736v-11l-91 -160h-88l76 171h103zM439 735h157v-735h-157v80l-40 -59q-46 -35 -137 -35q-109 0 -172.5 75t-63.5 195q0 137 73 214t181 77q80 0 124 -28l35 -56v272zM312 94q58 0 92.5 40t34.5 126v25q0 79 -36 116.5t-86 37.5q-59 0 -94.5 -45t-35.5 -129
q0 -78 34.5 -124.5t90.5 -46.5z" />
    <glyph glyph-name="Dcroat" unicode="&#x110;" horiz-adv-x="745" 
d="M427 686q129 -14 208 -97t79 -235q0 -153 -81 -244t-207 -106q-35 -4 -88 -4h-247v296h-59v86h59v308h248q53 0 88 -4zM387 125q74 8 118.5 68.5t44.5 158.5q0 95 -43.5 150t-117.5 63q-34 3 -70 3h-72v-186h111v-86h-111v-173h71q47 0 69 2z" />
    <glyph glyph-name="dcroat" unicode="&#x111;" horiz-adv-x="657" 
d="M637 580h-41v-580h-157v80l-40 -59q-46 -35 -137 -35q-109 0 -172.5 75t-63.5 195q0 137 73 214t181 77q80 0 124 -28l35 -56v117h-119v86h119v69h157v-69h41v-86zM312 94q58 0 92.5 40t34.5 126v25q0 79 -36 116.5t-86 37.5q-59 0 -94.5 -45t-35.5 -129
q0 -78 34.5 -124.5t90.5 -46.5z" />
    <glyph glyph-name="Emacron" unicode="&#x112;" horiz-adv-x="626" 
d="M482 759h-285v85h285v-85zM597 123v-123h-512v690h502v-122h-345v-161h322v-122h-322v-162h355z" />
    <glyph glyph-name="emacron" unicode="&#x113;" horiz-adv-x="588" 
d="M439 591h-285v85h285v-85zM560 276q0 -22 -3 -50h-374q6 -72 35 -102t77 -30q41 0 67.5 21t33.5 59h155q-21 -91 -90.5 -139.5t-168.5 -48.5q-117 0 -191.5 72t-74.5 207q0 122 75.5 202t200.5 80q122 0 190 -79t68 -192zM295 439q-89 0 -108 -114h210q-14 114 -102 114z
" />
    <glyph glyph-name="Edotaccent" unicode="&#x116;" horiz-adv-x="626" 
d="M339 728q-36 0 -58.5 21.5t-22.5 56.5q0 34 22.5 55.5t58.5 21.5t58.5 -21.5t22.5 -55.5q0 -35 -22.5 -56.5t-58.5 -21.5zM597 123v-123h-512v690h502v-122h-345v-161h322v-122h-322v-162h355z" />
    <glyph glyph-name="edotaccent" unicode="&#x117;" horiz-adv-x="588" 
d="M296 580q-38 0 -60.5 21.5t-22.5 58.5q0 36 22.5 57.5t60.5 21.5t61 -21.5t23 -57.5q0 -37 -23 -58.5t-61 -21.5zM560 276q0 -22 -3 -50h-374q6 -72 35 -102t77 -30q41 0 67.5 21t33.5 59h155q-21 -91 -90.5 -139.5t-168.5 -48.5q-117 0 -191.5 72t-74.5 207
q0 122 75.5 202t200.5 80q122 0 190 -79t68 -192zM295 439q-89 0 -108 -114h210q-14 114 -102 114z" />
    <glyph glyph-name="Eogonek" unicode="&#x118;" horiz-adv-x="626" 
d="M597 0h-38q-23 -2 -40 -25.5t-17 -56.5q0 -51 42 -51q23 0 47 21v-67q-47 -44 -124 -44q-109 0 -109 86q0 42 23 78.5t58 58.5h-354v690h502v-122h-345v-161h322v-122h-322v-162h355v-123z" />
    <glyph glyph-name="eogonek" unicode="&#x119;" horiz-adv-x="588" 
d="M560 276q0 -22 -3 -50h-374q6 -72 35 -102t77 -30q41 0 67.5 21t33.5 59h155q-31 -134 -161 -174q-3 -1 -8.5 -2.5t-8.5 -2.5q-18 -8 -29 -29t-11 -48q0 -51 42 -51q23 0 47 21v-67q-47 -44 -124 -44q-109 0 -109 86q0 72 64 125q-102 12 -164.5 83t-62.5 194
q0 122 75.5 202t200.5 80q122 0 190 -79t68 -192zM295 439q-89 0 -108 -114h210q-14 114 -102 114z" />
    <glyph glyph-name="Ecaron" unicode="&#x11a;" horiz-adv-x="626" 
d="M276 735l-63 118h95l33 -71l31 71h94l-63 -118h-127zM597 123v-123h-512v690h502v-122h-345v-161h322v-122h-322v-162h355z" />
    <glyph glyph-name="ecaron" unicode="&#x11b;" horiz-adv-x="588" 
d="M233 573l-63 122h94l34 -72l32 72h93l-63 -122h-127zM560 276q0 -22 -3 -50h-374q6 -72 35 -102t77 -30q41 0 67.5 21t33.5 59h155q-21 -91 -90.5 -139.5t-168.5 -48.5q-117 0 -191.5 72t-74.5 207q0 122 75.5 202t200.5 80q122 0 190 -79t68 -192zM295 439
q-89 0 -108 -114h210q-14 114 -102 114z" />
    <glyph glyph-name="Gbreve" unicode="&#x11e;" horiz-adv-x="747" 
d="M382 727q-58 0 -92.5 30.5t-34.5 95.5h81q3 -49 46 -49t46 49h81q0 -65 -34.5 -95.5t-92.5 -30.5zM407 359h289v-359h-124l-12 109l-31 -72q-55 -51 -164 -51q-143 0 -228 94t-85 261q0 169 98 266t247 97q138 0 215.5 -66t88.5 -173l1 -10h-156l-2 10q-25 123 -149 123
q-78 0 -128 -63t-50 -175q0 -124 49 -186t127 -62q60 0 100.5 34.5t53.5 100.5h-140v122z" />
    <glyph glyph-name="gbreve" unicode="&#x11f;" horiz-adv-x="656" 
d="M323 568q-127 0 -127 127h81q3 -50 46 -50t46 50h81q0 -127 -127 -127zM596 533v-398q0 -74 -1 -103q-4 -125 -81.5 -187.5t-212.5 -62.5q-118 0 -185 47.5t-76 136.5l-1 10h152l1 -9q4 -32 34 -50.5t79 -18.5q59 0 94 29t38 87q2 38 2 67v14l-40 -59q-48 -35 -129 -35
q-111 0 -177.5 71t-66.5 190q0 137 72.5 211t181.5 74q80 0 124 -28l35 -56v70h157zM312 109q58 0 92.5 40t34.5 126v10q0 79 -36 116.5t-86 37.5q-60 0 -95 -40.5t-35 -124.5q0 -77 34 -121t91 -44z" />
    <glyph glyph-name="Gdotaccent" unicode="&#x120;" horiz-adv-x="747" 
d="M382 728q-36 0 -58.5 21.5t-22.5 56.5q0 34 22.5 55.5t58.5 21.5t58.5 -21.5t22.5 -55.5q0 -35 -22.5 -56.5t-58.5 -21.5zM407 359h289v-359h-124l-12 109l-31 -72q-55 -51 -164 -51q-143 0 -228 94t-85 261q0 169 98 266t247 97q138 0 215.5 -66t88.5 -173l1 -10h-156
l-2 10q-25 123 -149 123q-78 0 -128 -63t-50 -175q0 -124 49 -186t127 -62q60 0 100.5 34.5t53.5 100.5h-140v122z" />
    <glyph glyph-name="gdotaccent" unicode="&#x121;" horiz-adv-x="656" 
d="M323 580q-38 0 -60.5 21.5t-22.5 58.5q0 36 22.5 57.5t60.5 21.5t61 -21.5t23 -57.5q0 -37 -23 -58.5t-61 -21.5zM596 533v-398q0 -74 -1 -103q-4 -125 -81.5 -187.5t-212.5 -62.5q-118 0 -185 47.5t-76 136.5l-1 10h152l1 -9q4 -32 34 -50.5t79 -18.5q59 0 94 29t38 87
q2 38 2 67v14l-40 -59q-48 -35 -129 -35q-111 0 -177.5 71t-66.5 190q0 137 72.5 211t181.5 74q80 0 124 -28l35 -56v70h157zM312 109q58 0 92.5 40t34.5 126v10q0 79 -36 116.5t-86 37.5q-60 0 -95 -40.5t-35 -124.5q0 -77 34 -121t91 -44z" />
    <glyph glyph-name="Gcommaaccent" unicode="&#x122;" horiz-adv-x="747" 
d="M407 359h289v-359h-124l-12 109l-31 -72q-55 -51 -164 -51q-143 0 -228 94t-85 261q0 169 98 266t247 97q138 0 215.5 -66t88.5 -173l1 -10h-156l-2 10q-25 123 -149 123q-78 0 -128 -63t-50 -175q0 -124 49 -186t127 -62q60 0 100.5 34.5t53.5 100.5h-140v122zM353 -41
h103v-10l-91 -160h-88z" />
    <glyph glyph-name="gcommaaccent" unicode="&#x123;" horiz-adv-x="656" 
d="M361 571h-102v10l90 160h88zM596 533v-398q0 -74 -1 -103q-4 -125 -81.5 -187.5t-212.5 -62.5q-118 0 -185 47.5t-76 136.5l-1 10h152l1 -9q4 -32 34 -50.5t79 -18.5q59 0 94 29t38 87q2 38 2 67v14l-40 -59q-48 -35 -129 -35q-111 0 -177.5 71t-66.5 190q0 137 72.5 211
t181.5 74q80 0 124 -28l35 -56v70h157zM312 109q58 0 92.5 40t34.5 126v10q0 79 -36 116.5t-86 37.5q-60 0 -95 -40.5t-35 -124.5q0 -77 34 -121t91 -44z" />
    <glyph glyph-name="Hbar" unicode="&#x126;" horiz-adv-x="760" 
d="M740 487h-40v-487h-156v277h-302v-277h-157v487h-40v86h40v117h157v-117h302v117h156v-117h40v-86zM544 487h-302v-87h302v87z" />
    <glyph glyph-name="hbar" unicode="&#x127;" horiz-adv-x="644" 
d="M586 400q5 -34 5 -99v-301h-157v277q0 47 -2 74q-7 88 -95 88q-49 -1 -78.5 -48t-29.5 -144v-247h-157v580h-53v86h53v74h157v-74h107v-86h-107v-131l44 64q51 34 124 34q83 0 131.5 -38.5t57.5 -108.5z" />
    <glyph glyph-name="Imacron" unicode="&#x12a;" horiz-adv-x="302" 
d="M306 759h-285v85h285v-85zM242 0h-157v690h157v-690z" />
    <glyph glyph-name="imacron" unicode="&#x12b;" horiz-adv-x="276" 
d="M280 591h-286v85h286v-85zM216 0h-157v533h157v-533z" />
    <glyph glyph-name="Iogonek" unicode="&#x12e;" horiz-adv-x="302" 
d="M242 0h-49q-23 -2 -40 -25.5t-17 -56.5q0 -51 42 -51q23 0 47 21v-67q-47 -44 -124 -44q-109 0 -109 86q0 46 27 85t66 59v683h157v-690z" />
    <glyph glyph-name="iogonek" unicode="&#x12f;" horiz-adv-x="276" 
d="M137 580q-38 0 -60.5 21.5t-22.5 58.5q0 36 22.5 57.5t60.5 21.5t61 -21.5t23 -57.5q0 -37 -23 -58.5t-61 -21.5zM59 533h157v-533h-49q-23 -2 -40 -25.5t-17 -56.5q0 -51 42 -51q23 0 47 21v-67q-47 -44 -124 -44q-109 0 -109 86q0 46 27 85t66 59v526z" />
    <glyph glyph-name="Idotaccent" unicode="&#x130;" horiz-adv-x="302" 
d="M163 883q36 0 58.5 -21.5t22.5 -55.5q0 -35 -22.5 -56.5t-58.5 -21.5t-58.5 21.5t-22.5 56.5q0 34 22.5 55.5t58.5 21.5zM242 0h-157v690h157v-690z" />
    <glyph glyph-name="dotlessi" unicode="&#x131;" horiz-adv-x="276" 
d="M216 0h-157v533h157v-533z" />
    <glyph glyph-name="IJ" unicode="&#x132;" horiz-adv-x="916" 
d="M242 0h-157v690h157v-690zM864 690v-400q0 -52 -3 -99q-6 -95 -69 -150t-186 -55q-125 0 -187.5 62.5t-65.5 175.5l-1 33h156l2 -33q4 -65 30 -93.5t73 -28.5q84 0 92 98q2 23 2 70v420h157z" />
    <glyph glyph-name="ij" unicode="&#x133;" horiz-adv-x="546" 
d="M137 739q38 0 61 -21.5t23 -57.5q0 -37 -23 -58.5t-61 -21.5t-60.5 21.5t-22.5 58.5q0 36 22.5 57.5t60.5 21.5zM411 739q83 0 83 -79q0 -80 -83 -80q-84 0 -84 80q0 79 84 79zM216 0h-157v533h157v-533zM489 533v-532q0 -29 -2 -65q-6 -72 -52 -109t-144 -37
q-31 0 -56 3v109q48 -5 70 6.5t25 43.5q2 14 2 47v534h157z" />
    <glyph glyph-name="Kcommaaccent" unicode="&#x136;" horiz-adv-x="710" 
d="M409 362l290 -362h-199l-205 274l-53 -59v-215h-157v690h157v-320l282 320h187zM321 -41h103v-10l-91 -160h-88z" />
    <glyph glyph-name="kcommaaccent" unicode="&#x137;" horiz-adv-x="605" 
d="M607 0h-195l-155 204l-41 -45v-159h-157v735h157v-436l202 234h186l-231 -246zM272 -41h103v-10l-91 -160h-88z" />
    <glyph glyph-name="Lacute" unicode="&#x139;" horiz-adv-x="615" 
d="M200 735h-86l82 118h140zM597 132v-132h-512v690h157v-558h355z" />
    <glyph glyph-name="lacute" unicode="&#x13a;" horiz-adv-x="291" 
d="M165 780h-86l84 122h140zM212 735v-553q0 -35 1 -49q2 -19 14.5 -25t46.5 -5v-107q-50 -5 -94 -5q-117 0 -123 99q-2 26 -2 89v556h157z" />
    <glyph glyph-name="Lcommaaccent" unicode="&#x13b;" horiz-adv-x="615" 
d="M597 132v-132h-512v690h157v-558h355zM301 -41h103v-10l-91 -160h-88z" />
    <glyph glyph-name="lcommaaccent" unicode="&#x13c;" horiz-adv-x="291" 
d="M212 735v-553q0 -35 1 -49q2 -19 14.5 -25t46.5 -5v-107q-50 -5 -94 -5q-117 0 -123 99q-2 26 -2 89v556h157zM218 -51l-91 -160h-88l76 170h103v-10z" />
    <glyph glyph-name="Lcaron" unicode="&#x13d;" horiz-adv-x="615" 
d="M597 132v-132h-512v690h157v-558h355z" />
    <glyph glyph-name="lcaron" unicode="&#x13e;" horiz-adv-x="291" 
d="M212 735v-553q0 -35 1 -49q2 -19 14.5 -25t46.5 -5v-107q-50 -5 -94 -5q-117 0 -123 99q-2 26 -2 89v556h157z" />
    <glyph glyph-name="Ldot" unicode="&#x13f;" horiz-adv-x="615" 
d="M597 132v-132h-512v690h157v-558h355zM436 311q-38 0 -63.5 25.5t-25.5 63.5t25.5 63.5t63.5 25.5t63 -25.5t25 -63.5t-25.5 -63.5t-62.5 -25.5z" />
    <glyph glyph-name="ldot" unicode="&#x140;" horiz-adv-x="448" 
d="M212 735v-553q0 -35 1 -49q2 -19 14.5 -25t46.5 -5v-107q-50 -5 -94 -5q-117 0 -123 99q-2 26 -2 89v556h157zM355 480q37 0 60.5 -22.5t23.5 -57.5t-23.5 -57.5t-60.5 -22.5q-36 0 -59.5 22.5t-23.5 57.5t23.5 57.5t59.5 22.5z" />
    <glyph glyph-name="Lslash" unicode="&#x141;" horiz-adv-x="650" 
d="M632 132v-132h-511v285l-98 -53v102l98 53v303h156v-218l96 52v-102l-96 -52v-238h355z" />
    <glyph glyph-name="lslash" unicode="&#x142;" horiz-adv-x="324" 
d="M237 133q2 -19 14 -25t46 -5v-107q-48 -5 -94 -5q-117 0 -123 99q-2 26 -2 89v41l-61 -38v106l61 38v409h157v-310l61 38v-106l-61 -38v-137q0 -35 2 -49z" />
    <glyph glyph-name="Nacute" unicode="&#x143;" horiz-adv-x="775" 
d="M433 735h-86l82 118h140zM715 0h-209l-270 494q6 -88 6 -194v-300h-157v690h201l278 -508q-5 90 -5 201v307h156v-690z" />
    <glyph glyph-name="nacute" unicode="&#x144;" horiz-adv-x="631" 
d="M492 695l-138 -122h-86l84 122h140zM573 400q5 -34 5 -99v-301h-157v277q0 47 -2 74q-7 88 -95 88q-49 0 -78.5 -47.5t-29.5 -144.5v-247h-157v533h157v-84l44 64q51 34 124 34q83 0 131.5 -38.5t57.5 -108.5z" />
    <glyph glyph-name="Ncommaaccent" unicode="&#x145;" horiz-adv-x="775" 
d="M715 0h-209l-270 494q6 -88 6 -194v-300h-157v690h201l278 -508q-5 90 -5 201v307h156v-690zM463 -51l-91 -160h-88l76 170h103v-10z" />
    <glyph glyph-name="ncommaaccent" unicode="&#x146;" horiz-adv-x="631" 
d="M573 400q5 -34 5 -99v-301h-157v277q0 47 -2 74q-7 88 -95 88q-49 0 -78.5 -47.5t-29.5 -144.5v-247h-157v533h157v-84l44 64q51 34 124 34q83 0 131.5 -38.5t57.5 -108.5zM201 -211l76 170h103v-10l-91 -160h-88z" />
    <glyph glyph-name="Ncaron" unicode="&#x147;" horiz-adv-x="775" 
d="M333 735l-63 118h95l33 -71l31 71h94l-63 -118h-127zM715 690v-690h-209l-270 494q6 -88 6 -194v-300h-157v690h201l278 -508q-5 90 -5 201v307h156z" />
    <glyph glyph-name="ncaron" unicode="&#x148;" horiz-adv-x="631" 
d="M381 573h-127l-63 122h94l34 -72l32 72h93zM573 400q5 -34 5 -99v-301h-157v277q0 47 -2 74q-7 88 -95 88q-49 0 -78.5 -47.5t-29.5 -144.5v-247h-157v533h157v-84l44 64q51 34 124 34q83 0 131.5 -38.5t57.5 -108.5z" />
    <glyph glyph-name="Eng" unicode="&#x14a;" horiz-adv-x="775" 
d="M715 690v-750q0 -27 -1 -41q-7 -66 -60.5 -94t-169.5 -28v116q42 4 58 18t16 43v23l-322 515q6 -88 6 -192v-300h-157v690h201l278 -468q-5 90 -5 196v272h156z" />
    <glyph glyph-name="eng" unicode="&#x14b;" horiz-adv-x="631" 
d="M573 400q5 -34 5 -99v-340q0 -27 -1 -41q-7 -70 -57 -100t-175 -30v116q37 0 54.5 10t20.5 36q1 9 1 31v294q0 47 -2 74q-7 88 -95 88q-49 0 -78.5 -47.5t-29.5 -144.5v-247h-157v533h157v-84l44 64q51 34 124 34q83 0 131.5 -38.5t57.5 -108.5z" />
    <glyph glyph-name="Omacron" unicode="&#x14c;" horiz-adv-x="775" 
d="M542 759h-285v85h285v-85zM399 704q159 0 252.5 -97t93.5 -262q0 -164 -93.5 -261.5t-252.5 -97.5q-160 0 -253.5 97.5t-93.5 261.5q0 165 93.5 262t253.5 97zM399 102q86 0 135 64t49 179t-49 179t-135 64q-87 0 -136 -63.5t-49 -179.5q0 -115 49 -179t136 -64z" />
    <glyph glyph-name="omacron" unicode="&#x14d;" horiz-adv-x="613" 
d="M450 591h-285v85h285v-85zM307 547q130 0 205.5 -77t75.5 -203t-75.5 -203.5t-205.5 -77.5q-131 0 -206 77t-75 204q0 126 75 203t206 77zM307 94q56 0 87.5 45t31.5 128t-31.5 127.5t-87.5 44.5q-57 0 -88.5 -44.5t-31.5 -127.5t31.5 -128t88.5 -45z" />
    <glyph glyph-name="Ohungarumlaut" unicode="&#x150;" horiz-adv-x="775" 
d="M326 736h-86l82 117h140zM418 736l82 117h140l-136 -117h-86zM399 704q159 0 252.5 -97t93.5 -262q0 -164 -93.5 -261.5t-252.5 -97.5q-160 0 -253.5 97.5t-93.5 261.5q0 165 93.5 262t253.5 97zM399 102q86 0 135 64t49 179t-49 179t-135 64q-87 0 -136 -63.5
t-49 -179.5q0 -115 49 -179t136 -64z" />
    <glyph glyph-name="ohungarumlaut" unicode="&#x151;" horiz-adv-x="613" 
d="M242 573h-86l83 122h140zM329 573l84 122h140l-138 -122h-86zM307 547q130 0 205.5 -77t75.5 -203t-75.5 -203.5t-205.5 -77.5q-131 0 -206 77t-75 204q0 126 75 203t206 77zM307 94q56 0 87.5 45t31.5 128t-31.5 127.5t-87.5 44.5q-57 0 -88.5 -44.5t-31.5 -127.5
t31.5 -128t88.5 -45z" />
    <glyph glyph-name="OE" unicode="&#x152;" horiz-adv-x="1124" 
d="M1094 123v-123h-511v112l-31 -68q-38 -33 -78 -45.5t-108 -12.5q-137 0 -225.5 99.5t-88.5 259.5q0 161 88.5 260t225.5 99q69 0 108.5 -12t77.5 -45l31 -69v112h501v-122h-345v-161h323v-122h-323v-162h355zM399 102q86 0 135 64.5t49 178.5q0 115 -49 179t-135 64
q-87 0 -136 -64t-49 -179q0 -114 49.5 -178.5t135.5 -64.5z" />
    <glyph glyph-name="oe" unicode="&#x153;" horiz-adv-x="989" 
d="M961 276q0 -22 -3 -50h-375q12 -132 112 -132q42 0 68.5 21t32.5 59h155q-21 -90 -89.5 -139t-165.5 -49q-129 0 -192 101q-63 -101 -197 -101q-131 0 -206 77t-75 204q0 126 75 203t206 77q136 0 202 -107q65 107 201 107q117 0 184 -79t67 -192zM307 94q56 0 87.5 45
t31.5 128t-31.5 127.5t-87.5 44.5q-57 0 -88.5 -44.5t-31.5 -127.5t31.5 -128t88.5 -45zM588 325h210q-14 114 -102 114q-90 0 -108 -114z" />
    <glyph glyph-name="Racute" unicode="&#x154;" horiz-adv-x="666" 
d="M388 735h-86l82 118h140zM602 171q13 -117 51 -171h-171q-25 71 -33 147q-14 117 -90 123q-19 1 -55 1h-62v-271h-157v690h262q59 0 104 -5q83 -10 133 -54t50 -129q0 -131 -137 -170q50 -19 74.5 -58.5t30.5 -102.5zM242 386h81q39 0 53 1q94 9 94 90q0 44 -23 64
t-65 25q-28 2 -53 2h-87v-182z" />
    <glyph glyph-name="racute" unicode="&#x155;" horiz-adv-x="398" 
d="M243 573h-86l84 122h140zM353 547q16 0 40 -4v-127q-94 6 -135.5 -37.5t-41.5 -155.5v-223h-157v533h157v-102l40 74q40 42 97 42z" />
    <glyph glyph-name="Rcommaaccent" unicode="&#x156;" horiz-adv-x="666" 
d="M602 171q13 -117 51 -171h-171q-25 71 -33 147q-14 117 -90 123q-19 1 -55 1h-62v-271h-157v690h262q59 0 104 -5q83 -10 133 -54t50 -129q0 -131 -137 -170q50 -19 74.5 -58.5t30.5 -102.5zM242 386h81q39 0 53 1q94 9 94 90q0 44 -23 64t-65 25q-28 2 -53 2h-87v-182z
M308 -41h103v-10l-91 -160h-88z" />
    <glyph glyph-name="rcommaaccent" unicode="&#x157;" horiz-adv-x="398" 
d="M353 547q16 0 40 -4v-127q-94 6 -135.5 -37.5t-41.5 -155.5v-223h-157v533h157v-102l40 74q40 42 97 42zM100 -41h103v-10l-91 -160h-88z" />
    <glyph glyph-name="Rcaron" unicode="&#x158;" horiz-adv-x="666" 
d="M288 735l-63 118h95l33 -71l31 71h94l-63 -118h-127zM602 171q13 -117 51 -171h-171q-25 71 -33 147q-14 117 -90 123q-19 1 -55 1h-62v-271h-157v690h262q59 0 104 -5q83 -10 133 -54t50 -129q0 -131 -137 -170q50 -19 74.5 -58.5t30.5 -102.5zM242 386h81q39 0 53 1
q94 9 94 90q0 44 -23 64t-65 25q-28 2 -53 2h-87v-182z" />
    <glyph glyph-name="rcaron" unicode="&#x159;" horiz-adv-x="398" 
d="M143 573l-63 122h94l34 -72l32 72h93l-63 -122h-127zM353 547q16 0 40 -4v-127q-94 6 -135.5 -37.5t-41.5 -155.5v-223h-157v533h157v-102l40 74q40 42 97 42z" />
    <glyph glyph-name="Sacute" unicode="&#x15a;" horiz-adv-x="616" 
d="M358 735h-86l82 118h140zM320 704q122 0 186.5 -60t76.5 -161h-158q-6 49 -34 77t-76 28q-38 0 -61 -18.5t-23 -54.5q0 -40 32 -63.5t114 -42.5q112 -27 165 -80.5t53 -136.5q0 -96 -76.5 -151t-186.5 -55q-130 0 -207 56t-86 165h158q10 -51 46 -78t86 -27q44 0 73 21
t29 56q0 37 -29 62t-97 41q-122 30 -180 77.5t-58 140.5t74 148.5t179 55.5z" />
    <glyph glyph-name="sacute" unicode="&#x15b;" horiz-adv-x="511" 
d="M435 695l-138 -122h-86l84 122h140zM263 547q94 0 150 -46.5t66 -122.5h-155q-14 69 -71 69q-25 0 -40 -14t-15 -35q0 -27 26.5 -44.5t97.5 -35.5q84 -21 126.5 -59.5t42.5 -109.5q0 -80 -63.5 -121.5t-162.5 -41.5q-105 0 -170 45t-75 133h155q8 -37 32.5 -57t58.5 -20
q30 0 49 13t19 37q0 28 -28.5 46t-99.5 35q-80 20 -122.5 58t-42.5 103q0 78 60.5 123t161.5 45z" />
    <glyph glyph-name="Scedilla" unicode="&#x15e;" horiz-adv-x="616" 
d="M595 192q0 -94 -74 -149t-181 -57l-14 -27q92 -12 92 -79q0 -90 -158 -90q-34 0 -55 7v63q31 -8 57 -8q60 0 60 31q0 38 -96 31l38 76q-101 14 -159.5 68.5t-65.5 148.5h158q10 -51 46 -78t86 -27q44 0 73 21t29 56q0 37 -29 62t-97 41q-122 30 -180 77.5t-58 140.5
t74 148.5t179 55.5q122 0 186.5 -60t76.5 -161h-158q-6 49 -34 77t-76 28q-38 0 -61 -18.5t-23 -54.5q0 -40 32 -63.5t114 -42.5q112 -27 165 -80.5t53 -136.5z" />
    <glyph glyph-name="scedilla" unicode="&#x15f;" horiz-adv-x="511" 
d="M491 149q0 -74 -54.5 -115t-143.5 -47l-15 -28q92 -12 92 -79q0 -90 -158 -90q-34 0 -55 7v63q31 -8 57 -8q60 0 60 31q0 38 -96 31l37 75q-84 10 -135 54t-60 121h155q8 -37 32.5 -57t58.5 -20q30 0 49 13t19 37q0 28 -28.5 46t-99.5 35q-80 20 -122.5 58t-42.5 103
q0 78 60.5 123t161.5 45q94 0 150 -46.5t66 -122.5h-155q-14 69 -71 69q-25 0 -40 -14t-15 -35q0 -27 26.5 -44.5t97.5 -35.5q84 -21 126.5 -59.5t42.5 -109.5z" />
    <glyph glyph-name="Scaron" unicode="&#x160;" horiz-adv-x="616" 
d="M258 735l-63 118h95l33 -71l31 71h94l-63 -118h-127zM377 409q112 -27 165 -80.5t53 -136.5q0 -96 -76.5 -151t-186.5 -55q-130 0 -207 56t-86 165h158q10 -51 46 -78t86 -27q44 0 73 21t29 56q0 37 -29 62t-97 41q-122 30 -180 77.5t-58 140.5t74 148.5t179 55.5
q122 0 186.5 -60t76.5 -161h-158q-6 49 -34 77t-76 28q-38 0 -61 -18.5t-23 -54.5q0 -40 32 -63.5t114 -42.5z" />
    <glyph glyph-name="scaron" unicode="&#x161;" horiz-adv-x="511" 
d="M324 573h-127l-63 122h94l34 -72l32 72h93zM322 318q84 -21 126.5 -59.5t42.5 -109.5q0 -80 -63.5 -121.5t-162.5 -41.5q-105 0 -170 45t-75 133h155q8 -37 32.5 -57t58.5 -20q30 0 49 13t19 37q0 28 -28.5 46t-99.5 35q-80 20 -122.5 58t-42.5 103q0 78 60.5 123
t161.5 45q94 0 150 -46.5t66 -122.5h-155q-14 69 -71 69q-25 0 -40 -14t-15 -35q0 -27 26.5 -44.5t97.5 -35.5z" />
    <glyph glyph-name="Tcedilla" unicode="&#x162;" horiz-adv-x="627" 
d="M364 0l-21 -41q92 -12 92 -79q0 -90 -158 -90q-34 0 -55 7v63q31 -8 57 -8q60 0 60 31q0 38 -96 31l43 86h-37v568h-230v122h616v-122h-230v-568h-41z" />
    <glyph glyph-name="tcedilla" unicode="&#x163;" horiz-adv-x="378" 
d="M247 429v-224q0 -36 1 -50q3 -40 22.5 -52t79.5 -8v-100q-51 -8 -97 -8h-9l-15 -28q92 -12 92 -79q0 -90 -158 -90q-34 0 -55 7v63q31 -8 57 -8q60 0 60 31q0 38 -96 31l41 83q-72 20 -78 106q-2 27 -2 81v245h-81v100h81v134h157v-134h113v-100h-113z" />
    <glyph glyph-name="Tcaron" unicode="&#x164;" horiz-adv-x="627" 
d="M264 735l-63 118h95l33 -71l31 71h94l-63 -118h-127zM635 568h-230v-568h-156v568h-230v122h616v-122z" />
    <glyph glyph-name="tcaron" unicode="&#x165;" horiz-adv-x="372" 
d="M453 735v-10l-91 -160h-88l76 170h103zM247 529h113v-100h-113v-224q0 -36 1 -50q3 -40 22.5 -52t79.5 -8v-100q-51 -8 -97 -8q-85 0 -120.5 27.5t-40.5 88.5q-2 27 -2 81v245h-81v100h81v134h157v-134z" />
    <glyph glyph-name="Tbar" unicode="&#x166;" horiz-adv-x="627" 
d="M405 568v-186h96v-86h-96v-296h-156v296h-96v86h96v186h-230v122h616v-122h-230z" />
    <glyph glyph-name="tbar" unicode="&#x167;" horiz-adv-x="378" 
d="M247 429v-84h71v-85h-71v-55q0 -36 1 -50q3 -40 22.5 -52t79.5 -8v-100q-51 -8 -97 -8q-85 0 -120.5 27.5t-40.5 88.5q-2 27 -2 81v76h-57v85h57v84h-81v100h81v134h157v-134h113v-100h-113z" />
    <glyph glyph-name="Umacron" unicode="&#x16a;" horiz-adv-x="709" 
d="M512 759h-285v85h285v-85zM663 690v-399q0 -52 -3 -88q-7 -95 -78 -156t-213 -61t-213.5 60.5t-78.5 156.5q-2 36 -2 88v399h156v-422q0 -32 1 -46q10 -120 137 -120q63 0 97.5 31.5t38.5 88.5q2 14 2 46v422h156z" />
    <glyph glyph-name="umacron" unicode="&#x16b;" horiz-adv-x="628" 
d="M452 591h-285v85h285v-85zM568 533v-533h-156v91l-45 -71q-51 -34 -124 -34q-79 0 -128.5 38.5t-59.5 96.5q-5 34 -5 99v313h156v-279q0 -37 4 -73q11 -86 96 -86q49 0 77.5 40.5t28.5 112.5v285h156z" />
    <glyph glyph-name="Uring" unicode="&#x16e;" horiz-adv-x="709" 
d="M369 918q49 0 80.5 -27.5t31.5 -71.5q0 -43 -31 -70.5t-81 -27.5t-81 27.5t-31 70.5q0 44 31.5 71.5t80.5 27.5zM369 859q-17 0 -27 -11t-10 -29q0 -17 10.5 -28.5t26.5 -11.5t26.5 11.5t10.5 28.5q0 18 -10 29t-27 11zM663 690v-399q0 -52 -3 -88q-7 -95 -78 -156
t-213 -61t-213.5 60.5t-78.5 156.5q-2 36 -2 88v399h156v-422q0 -32 1 -46q10 -120 137 -120q63 0 97.5 31.5t38.5 88.5q2 14 2 46v422h156z" />
    <glyph glyph-name="uring" unicode="&#x16f;" horiz-adv-x="628" 
d="M309 567q-50 0 -81 28t-31 73t31 73t81 28t81 -28t31 -73t-31 -73t-81 -28zM309 711q-17 0 -27 -11.5t-10 -31.5t10 -31.5t27 -11.5t27 11.5t10 31.5t-10 31.5t-27 11.5zM568 533v-533h-156v91l-45 -71q-51 -34 -124 -34q-79 0 -128.5 38.5t-59.5 96.5q-5 34 -5 99v313
h156v-279q0 -37 4 -73q11 -86 96 -86q49 0 77.5 40.5t28.5 112.5v285h156z" />
    <glyph glyph-name="Uhungarumlaut" unicode="&#x170;" horiz-adv-x="709" 
d="M296 736h-86l82 117h140zM474 736h-86l82 117h140zM663 690v-399q0 -52 -3 -88q-7 -95 -78 -156t-213 -61t-213.5 60.5t-78.5 156.5q-2 36 -2 88v399h156v-422q0 -32 1 -46q10 -120 137 -120q63 0 97.5 31.5t38.5 88.5q2 14 2 46v422h156z" />
    <glyph glyph-name="uhungarumlaut" unicode="&#x171;" horiz-adv-x="628" 
d="M244 573h-86l83 122h140zM331 573l84 122h140l-138 -122h-86zM568 533v-533h-156v91l-45 -71q-51 -34 -124 -34q-79 0 -128.5 38.5t-59.5 96.5q-5 34 -5 99v313h156v-279q0 -37 4 -73q11 -86 96 -86q49 0 77.5 40.5t28.5 112.5v285h156z" />
    <glyph glyph-name="Uogonek" unicode="&#x172;" horiz-adv-x="709" 
d="M663 690v-399q0 -52 -3 -88q-5 -75 -51.5 -130.5t-137.5 -76.5q-18 -8 -30 -29.5t-12 -48.5q0 -51 42 -51q23 0 47 21v-67q-47 -44 -124 -44q-109 0 -109 86q0 72 62 123q-131 5 -197 65t-73 152q-2 36 -2 88v399h156v-422q0 -32 1 -46q10 -120 137 -120q63 0 97.5 31.5
t38.5 88.5q2 14 2 46v422h156z" />
    <glyph glyph-name="uogonek" unicode="&#x173;" horiz-adv-x="628" 
d="M568 0h-48q-23 -2 -40 -25.5t-17 -56.5q0 -51 42 -51q23 0 47 21v-67q-47 -44 -124 -44q-109 0 -109 86q0 46 27 85t66 59v84l-45 -71q-51 -34 -124 -34q-79 0 -128.5 38.5t-59.5 96.5q-5 34 -5 99v313h156v-279q0 -37 4 -73q11 -86 96 -86q49 0 77.5 40.5t28.5 112.5
v285h156v-533z" />
    <glyph glyph-name="Wcircumflex" unicode="&#x174;" horiz-adv-x="1000" 
d="M486 735h-94l63 118h127l63 -118h-95l-33 71zM1008 690l-180 -690h-208l-104 559l-111 -559h-209l-170 690h168l106 -568l107 558h223l104 -563l113 573h161z" />
    <glyph glyph-name="wcircumflex" unicode="&#x175;" horiz-adv-x="847" 
d="M394 573h-93l63 122h127l63 -122h-94l-33 72zM852 533l-169 -533h-176l-80 387l-81 -387h-177l-169 533h174l83 -402l77 399h187l81 -400l81 403h169z" />
    <glyph glyph-name="Ycircumflex" unicode="&#x176;" horiz-adv-x="643" 
d="M305 735h-94l63 118h127l63 -118h-95l-33 71zM415 266v-266h-156v264l-244 426h177l150 -288l144 288h172z" />
    <glyph glyph-name="ycircumflex" unicode="&#x177;" horiz-adv-x="584" 
d="M256 573h-93l63 122h127l63 -122h-94l-33 72zM589 533l-213 -544q-45 -115 -96 -157t-139 -42q-39 0 -68 4v105q14 -2 44 -2q68 0 95 62l7 17l-219 557h175l122 -412l121 412h171z" />
    <glyph glyph-name="Ydieresis" unicode="&#x178;" horiz-adv-x="643" 
d="M245 726q-30 0 -49 18t-19 48t19 48t49 18t48.5 -18t18.5 -48t-18.5 -48t-48.5 -18zM430 726q-30 0 -49 18t-19 48t19 48t49 18t48.5 -18t18.5 -48t-18.5 -48t-48.5 -18zM415 266v-266h-156v264l-244 426h177l150 -288l144 288h172z" />
    <glyph glyph-name="Zacute" unicode="&#x179;" horiz-adv-x="634" 
d="M369 735h-86l82 118h140zM606 123v-123h-555v119l362 449h-334v122h522v-121l-358 -446h363z" />
    <glyph glyph-name="zacute" unicode="&#x17a;" horiz-adv-x="510" 
d="M302 573h-86l84 122h140zM481 101v-101h-450v95l280 333h-264v101h431v-100l-278 -328h281z" />
    <glyph glyph-name="Zdotaccent" unicode="&#x17b;" horiz-adv-x="634" 
d="M332 728q-36 0 -58.5 21.5t-22.5 56.5q0 34 22.5 55.5t58.5 21.5t58.5 -21.5t22.5 -55.5q0 -35 -22.5 -56.5t-58.5 -21.5zM606 123v-123h-555v119l362 449h-334v122h522v-121l-358 -446h363z" />
    <glyph glyph-name="zdotaccent" unicode="&#x17c;" horiz-adv-x="510" 
d="M265 580q-38 0 -60.5 21.5t-22.5 58.5q0 36 22.5 57.5t60.5 21.5t61 -21.5t23 -57.5q0 -37 -23 -58.5t-61 -21.5zM481 101v-101h-450v95l280 333h-264v101h431v-100l-278 -328h281z" />
    <glyph glyph-name="Zcaron" unicode="&#x17d;" horiz-adv-x="634" 
d="M269 735l-63 118h95l33 -71l31 71h94l-63 -118h-127zM606 123v-123h-555v119l362 449h-334v122h522v-121l-358 -446h363z" />
    <glyph glyph-name="zcaron" unicode="&#x17e;" horiz-adv-x="510" 
d="M202 573l-63 122h94l34 -72l32 72h93l-63 -122h-127zM481 101v-101h-450v95l280 333h-264v101h431v-100l-278 -328h281z" />
    <glyph glyph-name="Scommaaccent" unicode="&#x218;" horiz-adv-x="616" 
d="M320 704q122 0 186.5 -60t76.5 -161h-158q-6 49 -34 77t-76 28q-38 0 -61 -18.5t-23 -54.5q0 -40 32 -63.5t114 -42.5q112 -27 165 -80.5t53 -136.5q0 -96 -76.5 -151t-186.5 -55q-130 0 -207 56t-86 165h158q10 -51 46 -78t86 -27q44 0 73 21t29 56q0 37 -29 62t-97 41
q-122 30 -180 77.5t-58 140.5t74 148.5t179 55.5zM377 -51l-91 -160h-88l76 170h103v-10z" />
    <glyph glyph-name="scommaaccent" unicode="&#x219;" horiz-adv-x="511" 
d="M263 547q94 0 150 -46.5t66 -122.5h-155q-14 69 -71 69q-25 0 -40 -14t-15 -35q0 -27 26.5 -44.5t97.5 -35.5q84 -21 126.5 -59.5t42.5 -109.5q0 -80 -63.5 -121.5t-162.5 -41.5q-105 0 -170 45t-75 133h155q8 -37 32.5 -57t58.5 -20q30 0 49 13t19 37q0 28 -28.5 46
t-99.5 35q-80 20 -122.5 58t-42.5 103q0 78 60.5 123t161.5 45zM327 -41v-10l-91 -160h-88l76 170h103z" />
    <glyph glyph-name="uni021A" unicode="&#x21a;" horiz-adv-x="627" 
d="M635 568h-230v-568h-156v568h-230v122h616v-122zM291 -41h103v-10l-91 -160h-88z" />
    <glyph glyph-name="uni021B" unicode="&#x21b;" horiz-adv-x="378" 
d="M247 429v-224q0 -36 1 -50q3 -40 22.5 -52t79.5 -8v-100q-51 -8 -97 -8q-85 0 -120.5 27.5t-40.5 88.5q-2 27 -2 81v245h-81v100h81v134h157v-134h113v-100h-113zM176 -41h103v-10l-91 -160h-88z" />
    <glyph glyph-name="circumflex" unicode="&#x2c6;" horiz-adv-x="300" 
d="M183 573l-33 72l-33 -72h-93l63 122h127l63 -122h-94z" />
    <glyph glyph-name="caron" unicode="&#x2c7;" horiz-adv-x="300" 
d="M277 695l-63 -122h-127l-63 122h94l34 -72l32 72h93z" />
    <glyph glyph-name="breve" unicode="&#x2d8;" horiz-adv-x="300" 
d="M196 695h81q0 -127 -127 -127t-127 127h81q3 -50 46 -50t46 50z" />
    <glyph glyph-name="dotaccent" unicode="&#x2d9;" horiz-adv-x="300" 
d="M150 739q38 0 61 -21.5t23 -57.5q0 -37 -23 -58.5t-61 -21.5t-60.5 21.5t-22.5 58.5q0 36 22.5 57.5t60.5 21.5z" />
    <glyph glyph-name="ring" unicode="&#x2da;" horiz-adv-x="300" 
d="M150 769q50 0 81 -28t31 -73t-31 -73t-81 -28t-81 28t-31 73t31 73t81 28zM150 711q-17 0 -27 -11.5t-10 -31.5t10 -31.5t27 -11.5t27 11.5t10 31.5t-10 31.5t-27 11.5z" />
    <glyph glyph-name="ogonek" unicode="&#x2db;" horiz-adv-x="300" 
d="M150 7l108 -7q-23 -2 -40 -25.5t-17 -56.5q0 -51 42 -51q23 0 47 21v-67q-47 -44 -124 -44q-109 0 -109 86q0 46 27 85t66 59z" />
    <glyph glyph-name="tilde" unicode="&#x2dc;" horiz-adv-x="300" 
d="M81 699q36 0 77 -18q34 -14 45 -14q15 0 15 29h82q0 -62 -19.5 -90.5t-61.5 -28.5q-32 0 -77 18q-37 14 -45 14q-15 0 -15 -28h-81q0 62 19.5 90t60.5 28z" />
    <glyph glyph-name="hungarumlaut" unicode="&#x2dd;" horiz-adv-x="300" 
d="M85 573h-87l84 122h140zM258 573h-86l84 122h140z" />
    <glyph glyph-name="uni0326" unicode="&#x326;" horiz-adv-x="0" 
d="M217 -51l-91 -160h-88l76 170h103v-10z" />
    <glyph glyph-name="Wgrave" unicode="&#x1e80;" horiz-adv-x="1000" 
d="M486 735l-136 118h140l82 -118h-86zM1008 690l-180 -690h-208l-104 559l-111 -559h-209l-170 690h168l106 -568l107 558h223l104 -563l113 573h161z" />
    <glyph glyph-name="wgrave" unicode="&#x1e81;" horiz-adv-x="847" 
d="M401 573l-138 122h140l84 -122h-86zM852 533l-169 -533h-176l-80 387l-81 -387h-177l-169 533h174l83 -402l77 399h187l81 -400l81 403h169z" />
    <glyph glyph-name="Wacute" unicode="&#x1e82;" horiz-adv-x="1000" 
d="M555 735h-86l82 118h140zM1008 690l-180 -690h-208l-104 559l-111 -559h-209l-170 690h168l106 -568l107 558h223l104 -563l113 573h161z" />
    <glyph glyph-name="wacute" unicode="&#x1e83;" horiz-adv-x="847" 
d="M464 573h-86l84 122h140zM852 533l-169 -533h-176l-80 387l-81 -387h-177l-169 533h174l83 -402l77 399h187l81 -400l81 403h169z" />
    <glyph glyph-name="Wdieresis" unicode="&#x1e84;" horiz-adv-x="1000" 
d="M426 726q-30 0 -49 18t-19 48t19 48t49 18t48.5 -18t18.5 -48t-18.5 -48t-48.5 -18zM611 726q-30 0 -49 18t-19 48t19 48t49 18t48.5 -18t18.5 -48t-18.5 -48t-48.5 -18zM1008 690l-180 -690h-208l-104 559l-111 -559h-209l-170 690h168l106 -568l107 558h223l104 -563
l113 573h161z" />
    <glyph glyph-name="wdieresis" unicode="&#x1e85;" horiz-adv-x="847" 
d="M334 573q-30 0 -49 18t-19 48t19 48t49 18t49 -18t19 -48t-19 -48t-49 -18zM520 573q-30 0 -48.5 18t-18.5 48t18.5 48t48.5 18t49 -18t19 -48t-19 -48t-49 -18zM852 533l-169 -533h-176l-80 387l-81 -387h-177l-169 533h174l83 -402l77 399h187l81 -400l81 403h169z" />
    <glyph glyph-name="Ygrave" unicode="&#x1ef2;" horiz-adv-x="643" 
d="M305 735l-136 118h140l82 -118h-86zM415 266v-266h-156v264l-244 426h177l150 -288l144 288h172z" />
    <glyph glyph-name="ygrave" unicode="&#x1ef3;" horiz-adv-x="584" 
d="M263 573l-138 122h140l84 -122h-86zM589 533l-213 -544q-45 -115 -96 -157t-139 -42q-39 0 -68 4v105q14 -2 44 -2q68 0 95 62l7 17l-219 557h175l122 -412l121 412h171z" />
    <glyph glyph-name="endash" unicode="&#x2013;" horiz-adv-x="500" 
d="M415 248h-330v86h330v-86z" />
    <glyph glyph-name="emdash" unicode="&#x2014;" horiz-adv-x="1000" 
d="M915 248h-830v86h830v-86z" />
    <glyph glyph-name="quoteleft" unicode="&#x2018;" horiz-adv-x="303" 
d="M57 461l105 274h123l-79 -284h-149v10z" />
    <glyph glyph-name="quoteright" unicode="&#x2019;" horiz-adv-x="303" 
d="M246 725l-105 -274h-123l80 284h148v-10z" />
    <glyph glyph-name="quotesinglbase" unicode="&#x201a;" horiz-adv-x="255" 
d="M201 144l-104 -267h-124l79 277h149v-10z" />
    <glyph glyph-name="quotedblleft" unicode="&#x201c;" horiz-adv-x="526" 
d="M57 461l105 275h123l-80 -285h-148v10zM280 461l105 275h123l-80 -285h-148v10z" />
    <glyph glyph-name="quotedblright" unicode="&#x201d;" horiz-adv-x="526" 
d="M246 725l-105 -274h-123l80 284h148v-10zM469 725l-105 -274h-123l79 284h149v-10z" />
    <glyph glyph-name="quotedblbase" unicode="&#x201e;" horiz-adv-x="477" 
d="M201 144l-104 -267h-124l79 277h149v-10zM423 144l-104 -267h-124l80 277h148v-10z" />
    <glyph glyph-name="dagger" unicode="&#x2020;" horiz-adv-x="565" 
d="M524 347l-179 5l11 -512h-147l11 512l-179 -5v132l178 -5l-10 216h147l-10 -216l178 5v-132z" />
    <glyph glyph-name="daggerdbl" unicode="&#x2021;" horiz-adv-x="565" 
d="M344 352v-174l180 5v-132l-178 5l10 -216h-147l10 216l-178 -5v132l180 -5v174l-180 -5v132l178 -5l-10 216h147l-10 -216l178 5v-132z" />
    <glyph glyph-name="bullet" unicode="&#x2022;" horiz-adv-x="385" 
d="M193 429q55 0 89 -34.5t34 -89.5t-34 -89t-89 -34t-89.5 34t-34.5 89t34.5 89.5t89.5 34.5z" />
    <glyph glyph-name="ellipsis" unicode="&#x2026;" horiz-adv-x="775" 
d="M130 168q40 0 65.5 -25t25.5 -66q0 -40 -25.5 -65.5t-65.5 -25.5t-65.5 25.5t-25.5 65.5t25.5 65.5t65.5 25.5zM390 168q40 0 65.5 -25t25.5 -66q0 -40 -25.5 -65.5t-65.5 -25.5t-65.5 25.5t-25.5 65.5t25.5 65.5t65.5 25.5zM650 168q40 0 65.5 -25t25.5 -66
q0 -40 -25.5 -65.5t-65.5 -25.5t-65.5 25.5t-25.5 65.5t25.5 65.5t65.5 25.5z" />
    <glyph glyph-name="perthousand" unicode="&#x2030;" horiz-adv-x="1118" 
d="M348 537q0 -78 -42 -122.5t-115 -44.5q-74 0 -115.5 44t-41.5 123q0 78 41.5 122t115.5 44q73 0 115 -44t42 -122zM670 690l-447 -690h-114l447 690h114zM136 537q0 -89 55 -89t55 89q0 88 -55 88t-55 -88zM581 319q74 0 115.5 -44t41.5 -122q0 -79 -41.5 -123
t-115.5 -44q-73 0 -115 44.5t-42 122.5t42 122t115 44zM928 319q73 0 115 -44t42 -122t-42 -122.5t-115 -44.5q-74 0 -115.5 44t-41.5 123q0 78 41.5 122t115.5 44zM581 64q55 0 55 89q0 88 -55 88t-55 -88q0 -89 55 -89zM928 64q55 0 55 89q0 88 -55 88t-55 -88
q0 -89 55 -89z" />
    <glyph glyph-name="guilsinglleft" unicode="&#x2039;" horiz-adv-x="440" 
d="M392 414l-137 -166l137 -166h-115l-137 166l137 166h115z" />
    <glyph glyph-name="guilsinglright" unicode="&#x203a;" horiz-adv-x="415" 
d="M299 248l-137 -166h-115l137 166l-137 166h115z" />
    <glyph glyph-name="fraction" unicode="&#x2044;" horiz-adv-x="336" 
d="M2 0h-115l448 690h114z" />
    <glyph glyph-name="Euro" unicode="&#x20ac;" 
d="M485 233h-201q15 -72 52 -101.5t97 -29.5q81 0 147 39v-114q-72 -41 -183 -41q-241 0 -280 247h-82l18 86h56v23q0 19 1 28h-47l18 86h39q26 123 106 185.5t195 62.5q133 0 193 -62l-57 -97q-54 43 -129 43q-114 0 -143 -132h246l-19 -86h-238v-24v-27h228z" />
    <glyph glyph-name="trademark" unicode="&#x2122;" horiz-adv-x="538" 
d="M224 660v-44h-72v-160h-58v160h-72v44h202zM490 659v-203h-58l2 142l-35 -138h-59l-35 137l1 -141h-58v203h87l36 -145l35 145h84z" />
    <glyph glyph-name="partialdiff" unicode="&#x2202;" 
d="M299 758q148 0 221.5 -107.5t73.5 -297.5q0 -185 -75.5 -276t-209.5 -91q-117 0 -191.5 66t-74.5 192q0 125 69.5 195t183.5 70q92 0 130 -52q-9 93 -44 139.5t-105 46.5q-69 0 -131 -43l-50 99q91 59 203 59zM316 102q60 0 88 55t29 176q-31 61 -108 61q-56 0 -87 -38.5
t-31 -106.5q0 -71 29.5 -109t79.5 -38z" />
    <glyph glyph-name="emptyset" unicode="&#x2205;" horiz-adv-x="838" 
d="M819 678l-80 -80q80 -107 80 -243q0 -169 -117.5 -286t-282.5 -117q-136 0 -243 82l-94 -94l-62 63l92 92q-93 112 -93 260q0 169 117.5 286t282.5 117q148 0 260 -96l78 78zM115 355q0 -111 63 -194l437 437q-84 73 -196 73q-126 0 -215 -91t-89 -225zM723 355
q0 97 -50 176l-433 -433q80 -59 179 -59q126 0 215 91t89 225z" />
    <glyph glyph-name="product" unicode="&#x220f;" 
d="M606 568h-58v-678h-156v678h-142v-678h-156v678h-58v122h570v-122z" />
    <glyph glyph-name="summation" unicode="&#x2211;" 
d="M592 13v-123h-541v101l252 310l-222 288v101h505v-122h-311l209 -268l-237 -287h345z" />
    <glyph glyph-name="minus" unicode="&#x2212;" 
d="M542 275h-442v86h442v-86z" />
    <glyph glyph-name="radical" unicode="&#x221a;" 
d="M599 780l-223 -940h-118l-127 390h-78v80h150l112 -370l189 840h95z" />
    <glyph glyph-name="infinity" unicode="&#x221e;" horiz-adv-x="1013" 
d="M734 544q113 0 183.5 -77t70.5 -202t-71.5 -202t-189.5 -77q-156 0 -227 124q-37 -67 -90 -95.5t-131 -28.5q-113 0 -183 77t-70 202q0 126 71 202.5t190 76.5q159 0 229 -124q37 67 88.5 95.5t129.5 28.5zM295 94q97 0 115 171q-14 92 -42 131.5t-73 39.5
q-49 0 -78.5 -46.5t-29.5 -124.5q0 -77 29.5 -124t78.5 -47zM718 94q49 0 78.5 46.5t29.5 124.5t-29.5 124.5t-78.5 46.5q-94 0 -112 -171q14 -92 41 -131.5t71 -39.5z" />
    <glyph glyph-name="integral" unicode="&#x222b;" horiz-adv-x="641" 
d="M368 754q56 0 90 -22l-15 -81q-27 17 -63 17q-32 0 -53 -21.5t-21 -64.5q0 -48 11.5 -104t51.5 -174q62 -187 62 -286q0 -79 -43.5 -128.5t-115.5 -49.5q-56 0 -90 22l15 81q27 -17 64 -17q32 0 53 22t21 65q0 48 -11.5 103.5t-51.5 173.5q-62 187 -62 287q0 79 43 128
t115 49z" />
    <glyph glyph-name="approxequal" unicode="&#x2248;" 
d="M213 482q28 0 51.5 -8.5t69.5 -32.5q64 -35 93 -35q44 0 83 46l54 -55q-52 -85 -137 -85q-28 0 -52 8.5t-68 32.5q-67 35 -93 35q-46 0 -83 -47l-54 56q52 85 136 85zM213 292q28 0 51.5 -8.5t69.5 -32.5q64 -35 93 -35q44 0 83 46l54 -55q-52 -85 -137 -85
q-28 0 -52 8.5t-68 32.5q-67 35 -93 35q-46 0 -83 -47l-54 56q52 85 136 85z" />
    <glyph glyph-name="notequal" unicode="&#x2260;" 
d="M399 377l-61 -120h219v-80h-260l-54 -105h-95l54 105h-117v80h158l61 120h-219v80h260l54 105h95l-54 -105h117v-80h-158z" />
    <glyph glyph-name="lessequal" unicode="&#x2264;" 
d="M548 419l-344 -102l344 -106v-95l-435 142v119l435 141v-99zM113 86h435v-86h-435v86z" />
    <glyph glyph-name="greaterequal" unicode="&#x2265;" 
d="M522 377v-119l-428 -142v99l338 102l-338 106v95zM94 86h428v-86h-428v86z" />
    <glyph glyph-name="lozenge" unicode="&#x25ca;" horiz-adv-x="544" 
d="M497 345l-160 -345h-130l-160 345l160 345h130zM381 345l-109 245l-109 -245l109 -245z" />
    </font>
</defs>
</svg>
