<?xml version="1.0" standalone="no"?>
<!DOCTYPE svg PUBLIC "-//W3C//DTD SVG 1.1//EN" "http://www.w3.org/Graphics/SVG/1.1/DTD/svg11.dtd" >
<svg>
<metadata>
Created by FontForge 20090622 at Mon Aug 29 11:44:47 2016
 By deploy user
Copyright (c) Phanlop Thongsuk, 1995-2004. All rights reserved.
</metadata>
<defs>
<font id="PSLKandaModernBold" horiz-adv-x="0" >
  <font-face 
    font-family="PSL Kanda Modern"
    font-weight="700"
    font-stretch="normal"
    units-per-em="2048"
    panose-1="2 11 6 4 2 2 2 2 2 4"
    ascent="1638"
    descent="-410"
    x-height="698"
    cap-height="965"
    bbox="-829 -612 1499 1599"
    underline-thickness="50"
    underline-position="-115"
    unicode-range="U+0020-U+F71D"
  />
<missing-glyph 
 />
    <glyph glyph-name=".notdef" 
 />
    <glyph glyph-name=".null" 
 />
    <glyph glyph-name="nonmarkingreturn" horiz-adv-x="492" 
 />
    <glyph glyph-name="space" unicode=" " horiz-adv-x="492" 
 />
    <glyph glyph-name="space" unicode="&#xa0;" horiz-adv-x="492" 
 />
    <glyph glyph-name="exclam" unicode="!" horiz-adv-x="344" 
d="M236 664l-35 -416h-56l-36 416v301h127v-301zM246 0h-148v150h148v-150z" />
    <glyph glyph-name="quotedbl" unicode="&#x22;" horiz-adv-x="563" 
d="M420 616h-90v349h90v-349zM236 616h-91v349h91v-349z" />
    <glyph glyph-name="numbersign" unicode="#" horiz-adv-x="737" 
d="M692 573h-131l-26 -202h118v-92h-133l-39 -279h-90l39 279h-166l-37 -279h-92l37 279h-127v92h141l29 202h-135v93h147l37 276h92l-39 -276h164l39 276h92l-39 -276h119v-93zM469 573h-164l-26 -202h163z" />
    <glyph glyph-name="dollar" unicode="$" horiz-adv-x="858" 
d="M809 254q0 -121 -100 -197q-91 -65 -234 -75v-134h-90v134q-147 12 -238 94q-100 92 -98 241h119q-4 -94 61 -157q60 -60 156 -72v363q-166 41 -223 81q-84 62 -84 195q0 113 92 184q84 66 215 74v133h90v-133q270 -24 293 -303h-117q-20 170 -176 197v-330
q176 -45 230 -80q104 -68 104 -215zM385 573v308q-180 -19 -180 -154q0 -74 41 -104q30 -23 139 -50zM684 256q0 76 -55 115q-41 28 -154 57v-340q209 14 209 168z" />
    <glyph glyph-name="percent" unicode="%" horiz-adv-x="1325" 
d="M1204 270q0 -116 -47 -194q-55 -88 -164 -88q-215 0 -215 276q0 113 47 182q56 82 162 82q217 0 217 -258zM1073 977l-711 -1006h-112l711 1006h112zM549 700q0 -116 -47 -194q-56 -90 -164 -90q-215 0 -215 278q0 113 47 183q55 81 162 81q217 0 217 -258zM1106 268
q-8 185 -117 185q-112 0 -112 -191q0 -201 114 -201q64 0 94 70q25 55 21 137zM451 698q-9 185 -117 185q-113 0 -113 -191q0 -200 115 -200q63 0 94 69q25 55 21 137z" />
    <glyph glyph-name="ampersand" unicode="&#x26;" horiz-adv-x="836" 
d="M856 0h-149l-97 119q-114 -135 -262 -135q-129 0 -211 59q-92 72 -92 207q0 98 61 170q48 55 160 121q-106 133 -106 223q0 88 60.5 144.5t156.5 56.5q100 0 162.5 -56.5t62.5 -144.5q0 -133 -178 -244l174 -209q25 68 31 144h106q-12 -133 -61 -234zM487 762
q0 43 -30.5 72.5t-75.5 29.5q-47 0 -78 -28.5t-31 -71.5q0 -70 68 -143l22 -25q123 76 125 166zM545 201l-215 264q-86 -47 -117 -80q-49 -53 -49 -135q0 -70 56 -117t132 -47q115 0 193 115z" />
    <glyph glyph-name="quotesingle" unicode="'" horiz-adv-x="367" 
d="M229 616h-90v349h90v-349z" />
    <glyph glyph-name="parenleft" unicode="(" horiz-adv-x="344" 
d="M358 987q-176 -287 -178 -620q-2 -330 176 -635h-84q-213 331 -211 635q2 358 209 620h88z" />
    <glyph glyph-name="parenright" unicode=")" horiz-adv-x="344" 
d="M281 367q2 -304 -211 -635h-82q176 305 174 635q-2 333 -176 620h86q207 -262 209 -620z" />
    <glyph glyph-name="asterisk" unicode="*" horiz-adv-x="475" 
d="M442 801l-145 -51l88 -123l-55 -41l-94 129l-86 -129l-62 41l88 123l-143 51l24 65l144 -53v152h71v-152l144 53z" />
    <glyph glyph-name="plus" unicode="+" horiz-adv-x="748" 
d="M686 295h-266v-268h-92v268h-267v92h267v264h92v-264h266v-92z" />
    <glyph glyph-name="comma" unicode="," horiz-adv-x="330" 
d="M258 47q0 -110 -123 -190l-47 32q70 43 94 107q-14 -4 -28 -4q-31 0 -55.5 22.5t-24.5 55.5q0 32 25.5 59t60.5 27q98 0 98 -109z" />
    <glyph glyph-name="hyphen" unicode="-" horiz-adv-x="516" 
d="M451 322h-385v108h385v-108z" />
    <glyph glyph-name="period" unicode="." horiz-adv-x="330" 
d="M248 72q0 -33 -24.5 -56.5t-59.5 -23.5t-58.5 22.5t-23.5 57.5q0 34 24.5 59t57.5 25q35 0 59.5 -25t24.5 -59z" />
    <glyph glyph-name="slash" unicode="/" horiz-adv-x="442" 
d="M465 987l-393 -1007h-95l390 1007h98z" />
    <glyph glyph-name="zero" unicode="0" horiz-adv-x="748" 
d="M690 506q0 -264 -51 -373q-72 -149 -272 -149q-179 0 -252 143q-62 119 -62 367q0 464 320 464q317 0 317 -452zM569 504q0 356 -194 356q-121 0 -168 -123q-31 -84 -31 -245q0 -193 31 -279q43 -129 164 -129q123 0 168 125q30 90 30 295z" />
    <glyph glyph-name="one" unicode="1" horiz-adv-x="748" 
d="M479 0h-117v686h-247v92q245 0 276 180h88v-958z" />
    <glyph glyph-name="two" unicode="2" horiz-adv-x="748" 
d="M664 700q0 -147 -95 -245q-47 -49 -198 -140q-197 -118 -209 -215h495v-100h-626q4 154 100 260q64 70 236 174q94 58 136 115t42 145q0 62 -54.5 112t-132.5 50q-88 0 -141 -70.5t-43 -167.5h-117q-8 160 80 250t238 90q121 0 205 -72.5t84 -185.5z" />
    <glyph glyph-name="three" unicode="3" horiz-adv-x="748" 
d="M688 266q0 -131 -100 -209q-92 -71 -226 -71q-155 0 -239 82t-84 229h113q0 -102 61 -158q55 -53 149 -53q82 0 141.5 51t59.5 129q0 189 -211 189q-28 0 -59 -4v98q231 -21 231 166q0 61 -46 101t-116 40q-188 0 -188 -207h-115q0 133 70 215q80 94 229 94
q129 0 209 -67.5t80 -177.5q0 -135 -137 -203q178 -41 178 -244z" />
    <glyph glyph-name="four" unicode="4" horiz-adv-x="748" 
d="M694 225h-121v-225h-116v225h-422v111l438 622h100v-632h121v-101zM457 326v454l-320 -454h320z" />
    <glyph glyph-name="five" unicode="5" horiz-adv-x="748" 
d="M686 326q0 -154 -91 -247t-233 -93q-143 0 -230 75.5t-87 196.5h115q0 -74 59.5 -123t138.5 -49q97 0 151 62.5t54 170.5q0 91 -58.5 151t-160.5 60q-100 0 -174 -92l-98 6l88 498h473v-100h-385l-53 -279q69 68 180 68q147 0 233 -94q78 -84 78 -211z" />
    <glyph glyph-name="six" unicode="6" horiz-adv-x="748" 
d="M700 305q0 -141 -82 -227q-88 -92 -243 -92q-326 0 -326 483q0 205 76 336q90 153 264 153q266 0 281 -245h-111q-33 143 -162 143q-213 0 -235 -364q88 122 244 122q139 0 216.5 -86t77.5 -223zM575 303q0 92 -49 150q-55 61 -151 61q-82 0 -135.5 -61.5t-53.5 -147.5
q0 -88 52.5 -153.5t134.5 -65.5q100 0 153 66q49 59 49 151z" />
    <glyph glyph-name="seven" unicode="7" horiz-adv-x="748" 
d="M686 844q-367 -381 -367 -844h-129q0 215 121 467q111 225 256 367h-501v108h620v-98z" />
    <glyph glyph-name="eight" unicode="8" horiz-adv-x="748" 
d="M698 270q0 -118 -95 -203t-228 -85q-137 0 -231.5 81.5t-94.5 198.5q0 180 160 256q-123 70 -123 199q0 100 83 170.5t202 70.5q116 0 199 -70.5t83 -170.5q0 -127 -121 -197q166 -74 166 -250zM539 705q0 63 -49.5 108t-114.5 45q-70 0 -119 -45t-49 -108q0 -64 49 -109
t117 -45q67 0 116.5 45t49.5 109zM578 272q0 78 -58.5 130.5t-142.5 52.5t-142.5 -52.5t-58.5 -130.5q0 -82 52.5 -133t148.5 -51q84 0 142.5 52.5t58.5 131.5z" />
    <glyph glyph-name="nine" unicode="9" horiz-adv-x="748" 
d="M692 473q0 -205 -76 -336q-90 -151 -264 -151q-266 0 -280 243h110q33 -143 162 -143q213 0 236 365q-88 -123 -244 -123q-139 0 -217 86t-78 223q0 141 82 227q88 94 244 94q325 0 325 -485zM555 637q0 88 -49 151q-55 68 -137 68q-101 0 -152 -62.5t-51 -154.5
t52 -151.5t149 -59.5q82 0 135 61.5t53 147.5z" />
    <glyph glyph-name="colon" unicode=":" horiz-adv-x="330" 
d="M248 578q0 -33 -24.5 -57.5t-59.5 -24.5t-58.5 23.5t-23.5 58.5q0 34 24.5 59t57.5 25q35 0 59.5 -25t24.5 -59zM248 72q0 -33 -24.5 -56.5t-59.5 -23.5t-58.5 22.5t-23.5 57.5q0 34 24.5 59t57.5 25q35 0 59.5 -25t24.5 -59z" />
    <glyph glyph-name="semicolon" unicode=";" horiz-adv-x="330" 
d="M248 578q0 -33 -24.5 -57.5t-59.5 -24.5t-58.5 23.5t-23.5 58.5q0 34 24.5 59t57.5 25q35 0 59.5 -25t24.5 -59zM258 47q0 -110 -123 -190l-47 32q70 43 94 107q-14 -4 -28 -4q-31 0 -55.5 22.5t-24.5 55.5q0 32 25.5 59t60.5 27q98 0 98 -109z" />
    <glyph glyph-name="less" unicode="&#x3c;" horiz-adv-x="795" 
d="M735 -8l-676 309v82l676 311v-92l-565 -260l565 -260v-90z" />
    <glyph glyph-name="equal" unicode="=" horiz-adv-x="748" 
d="M686 426h-625v92h625v-92zM686 164h-625v92h625v-92z" />
    <glyph glyph-name="greater" unicode="&#x3e;" horiz-adv-x="795" 
d="M735 301l-676 -309v90l566 260l-566 260v92l676 -311v-82z" />
    <glyph glyph-name="question" unicode="?" horiz-adv-x="748" 
d="M647 717q0 -96 -59 -172l-111 -115q-59 -68 -59 -141v-45h-113v55q0 72 41 133q19 29 80 92q55 56 72 84q34 56 30 121q-10 158 -161 158q-91 0 -138 -62.5t-47 -160.5h-112q-2 141 79.5 232t217.5 91q125 0 202.5 -71.5t77.5 -198.5zM449 78q0 -39 -25 -62.5t-62 -23.5
q-36 0 -61 23.5t-25 62.5q0 37 25 61.5t61 24.5q37 0 62 -24.5t25 -61.5z" />
    <glyph glyph-name="at" unicode="@" horiz-adv-x="1081" 
d="M1018 551q0 -127 -92 -244q-101 -127 -236 -127q-59 0 -76 90q-88 -94 -184 -94q-78 0 -129 63.5t-51 159.5q0 105 65 215q95 160 267 160q94 0 137 -110l31 86h86l-123 -424q-4 -15 -4 -27q0 -43 39 -43q65 0 124 121q54 104 54 176q0 152 -103.5 255t-265.5 103
q-168 0 -287 -108q-131 -117 -131 -311q0 -199 116 -320t298 -121q115 0 195 39q73 35 155 125h80q-53 -104 -172 -169.5t-262 -65.5q-215 0 -350 133q-142 141 -142 383q0 221 152 360q141 131 350 131q205 0 332 -124t127 -312zM651 438q25 58 25 111q0 59 -30 96t-77 37
q-127 0 -194 -172q-21 -53 -21 -107q0 -135 107 -135q119 0 190 170z" />
    <glyph glyph-name="A" unicode="A" horiz-adv-x="858" 
d="M868 0h-139l-102 291h-400l-106 -291h-129l368 965h138zM586 399l-158 451l-160 -451h318z" />
    <glyph glyph-name="B" unicode="B" horiz-adv-x="907" 
d="M848 270q0 -120 -84 -195t-213 -75h-449v965h420q150 0 226 -76q61 -62 61 -152q0 -164 -139 -227q178 -59 178 -240zM682 698q0 103 -68 138q-43 20 -145 20h-240v-305h236q217 0 217 147zM723 287q0 92 -76 127q-59 28 -182 28h-236v-333h260q111 0 164 30
q70 41 70 148z" />
    <glyph glyph-name="C" unicode="C" horiz-adv-x="956" 
d="M901 365q-20 -183 -126.5 -285.5t-285.5 -102.5q-206 0 -320 139.5t-114 381.5q0 204 121 346.5t320 142.5q166 0 274.5 -86t122.5 -227h-125q-39 207 -272 207q-150 0 -236 -121q-78 -109 -78 -266q0 -170 72 -279q82 -127 233 -127q261 0 289 277h125z" />
    <glyph glyph-name="D" unicode="D" horiz-adv-x="934" 
d="M883 522q0 -522 -447 -522h-334v965h338q222 0 338 -131q105 -117 105 -312zM754 522q0 185 -95 264q-81 70 -251 70h-179v-747h193q194 0 274 129q58 96 58 284z" />
    <glyph glyph-name="E" unicode="E" horiz-adv-x="809" 
d="M760 0h-658v965h654v-109h-527v-305h492v-109h-492v-333h531v-109z" />
    <glyph glyph-name="F" unicode="F" horiz-adv-x="760" 
d="M725 856h-496v-305h435v-109h-435v-442h-127v965h623v-109z" />
    <glyph glyph-name="G" unicode="G" horiz-adv-x="1006" 
d="M924 0h-80l-31 121q-129 -141 -321 -141q-193 0 -315 145t-122 369q0 204 119 344q127 149 332 149q348 0 407 -317h-122q-39 110 -89 153q-65 58 -194 58q-154 0 -244 -123q-84 -111 -84 -271q0 -172 86 -282q90 -117 238 -117q139 0 223 83t84 228h-303v109h416v-508z
" />
    <glyph glyph-name="H" unicode="H" horiz-adv-x="956" 
d="M852 0h-125v442h-498v-442h-127v965h127v-414h498v414h125v-965z" />
    <glyph glyph-name="I" unicode="I" horiz-adv-x="344" 
d="M236 0h-127v965h127v-965z" />
    <glyph glyph-name="J" unicode="J" horiz-adv-x="688" 
d="M584 258q0 -278 -277 -278q-149 0 -215.5 80.5t-60.5 256.5h123q-15 -233 153 -233q107 0 137 92q13 35 13 131v658h127v-707z" />
    <glyph glyph-name="K" unicode="K" horiz-adv-x="883" 
d="M887 0h-158l-342 487l-158 -149v-338h-127v965h127v-482l482 482h159l-397 -390z" />
    <glyph glyph-name="L" unicode="L" horiz-adv-x="737" 
d="M731 0h-629v965h127v-856h502v-109z" />
    <glyph glyph-name="M" unicode="M" horiz-adv-x="1153" 
d="M1049 0h-119v811l-299 -811h-107l-299 819v-819h-119v965h173l296 -811l299 811h175v-965z" />
    <glyph glyph-name="N" unicode="N" horiz-adv-x="956" 
d="M854 0h-133l-500 778v-778h-119v965h131l504 -783v783h117v-965z" />
    <glyph glyph-name="O" unicode="O" horiz-adv-x="1008" 
d="M958 485q0 -215 -124 -358q-127 -147 -328 -147q-207 0 -334 147q-123 141 -123 358q0 215 127 360.5t330 145.5q196 0 324 -146.5t128 -359.5zM836 483q0 170 -91.5 285t-238.5 115q-152 0 -241 -114t-89 -286q0 -170 90 -284.5t240 -114.5q149 0 239.5 114.5
t90.5 284.5z" />
    <glyph glyph-name="P" unicode="P" horiz-adv-x="858" 
d="M809 688q0 -160 -96 -233q-76 -60 -195 -60h-289v-395h-127v965h377q330 0 330 -277zM682 682q0 176 -213 176h-240v-354h228q108 0 159 33q66 41 66 145z" />
    <glyph glyph-name="Q" unicode="Q" horiz-adv-x="1008" 
d="M958 485q0 -233 -145 -383l127 -102l-66 -82l-147 119q-96 -57 -221 -57q-207 0 -334 147q-123 141 -123 358q0 215 127 360.5t330 145.5q196 0 324 -146.5t128 -359.5zM836 483q0 170 -91.5 285t-238.5 115q-152 0 -241 -114t-89 -286q0 -170 90 -284.5t240 -114.5
q65 0 129 27l-105 86l66 79l127 -102q113 117 113 309z" />
    <glyph glyph-name="R" unicode="R" horiz-adv-x="907" 
d="M872 0h-141q-20 20 -26 88q-7 76 -11 150q-10 96 -51 135t-125 39h-289v-412h-127v965h445q119 0 198 -56q91 -65 91 -184q0 -205 -166 -260q127 -25 141 -180q8 -82 17.5 -165t43.5 -120zM711 692q0 94 -58 131q-49 33 -161 33h-263v-336h256q226 0 226 172z" />
    <glyph glyph-name="S" unicode="S" horiz-adv-x="858" 
d="M809 254q0 -131 -115 -207q-104 -67 -260 -67q-162 0 -268 81q-119 95 -117 256h119q-4 -108 78 -172q76 -59 186 -59q252 0 252 170q0 88 -76 127q-41 23 -207 63q-178 43 -233 82q-90 62 -90 199q0 121 104 193q94 67 238 67q325 0 348 -305h-117q-24 201 -225 201
q-98 0 -159.5 -40t-61.5 -116q0 -80 53 -111q27 -16 178 -57q213 -57 254 -82q119 -67 119 -223z" />
    <glyph glyph-name="T" unicode="T" horiz-adv-x="760" 
d="M758 856h-314v-856h-127v856h-315v109h756v-109z" />
    <glyph glyph-name="U" unicode="U" horiz-adv-x="956" 
d="M858 346q0 -182 -102.5 -275.5t-284.5 -93.5q-170 0 -268 89q-105 96 -105 268v631h127v-625q0 -113 62 -180q65 -74 182 -74q264 0 264 256v623h125v-619z" />
    <glyph glyph-name="V" unicode="V" horiz-adv-x="809" 
d="M813 965l-336 -965h-143l-334 965h135l271 -836l274 836h133z" />
    <glyph glyph-name="W" unicode="W" horiz-adv-x="1227" 
d="M1210 965l-252 -965h-131l-219 811l-219 -811h-131l-242 965h129l187 -807l213 807h135l213 -811l192 811h125z" />
    <glyph glyph-name="X" unicode="X" horiz-adv-x="809" 
d="M811 0h-154l-251 399l-263 -399h-143l330 496l-312 469h150l235 -377l250 377h140l-316 -469z" />
    <glyph glyph-name="Y" unicode="Y" horiz-adv-x="858" 
d="M856 965l-362 -572v-393h-127v393l-365 572h150l284 -459l279 459h141z" />
    <glyph glyph-name="Z" unicode="Z" horiz-adv-x="809" 
d="M780 0h-749v109l590 747h-547v109h690v-109l-588 -747h604v-109z" />
    <glyph glyph-name="bracketleft" unicode="[" horiz-adv-x="344" 
d="M344 -266h-248v1253h248v-90h-143v-1071h143v-92z" />
    <glyph glyph-name="backslash" unicode="\" horiz-adv-x="442" 
d="M465 -20h-98l-390 1007h95z" />
    <glyph glyph-name="bracketright" unicode="]" horiz-adv-x="344" 
d="M248 -266h-248v92h143v1071h-143v90h248v-1253z" />
    <glyph glyph-name="asciicircum" unicode="^" horiz-adv-x="795" 
d="M729 356h-92l-242 488l-235 -488h-94l288 586h86z" />
    <glyph glyph-name="underscore" unicode="_" horiz-adv-x="748" 
d="M748 -190h-748v92h748v-92z" />
    <glyph glyph-name="grave" unicode="`" horiz-adv-x="295" 
d="M229 795h-86l-172 192h144z" />
    <glyph glyph-name="a" unicode="a" horiz-adv-x="711" 
d="M692 0q-35 -14 -76 -14q-106 0 -98 106q-110 -106 -244 -106q-223 0 -223 196q0 111 80 162q51 33 176 55q137 25 150 29q53 21 53 78q0 108 -154 108q-161 0 -168 -133h-114q2 103 73.5 167.5t208.5 64.5q269 0 269 -183v-393q0 -53 30 -53q15 0 37 8v-92zM508 250v108
q-43 -22 -196.5 -44.5t-145.5 -125.5q8 -102 149 -102q74 0 133.5 47t59.5 117z" />
    <glyph glyph-name="b" unicode="b" horiz-adv-x="784" 
d="M739 367q0 -215 -112 -314q-82 -69 -199 -69q-145 0 -227 112v-96h-113v965h113v-367q65 117 223 117q141 0 231 -103q84 -100 84 -245zM618 367q0 98 -55 171.5t-145 73.5q-221 0 -221 -262q0 -112 49 -182q57 -82 172 -82q104 0 155 88q45 76 45 193z" />
    <glyph glyph-name="c" unicode="c" horiz-adv-x="711" 
d="M670 256q-39 -270 -299 -270q-156 0 -239 98t-83 268q0 160 85 261.5t237 101.5q137 0 217 -70q71 -65 76 -170h-113q-27 139 -178 139q-103 0 -158 -79q-49 -70 -49 -181q0 -112 45 -182q51 -86 156 -86q168 0 188 170h115z" />
    <glyph glyph-name="d" unicode="d" horiz-adv-x="784" 
d="M696 0h-112v96q-66 -112 -228 -112q-112 0 -198 73q-113 103 -113 310q0 145 87 246.5t228 101.5q158 0 224 -117v367h112v-965zM588 350q0 262 -219 262q-93 0 -148 -73.5t-55 -171.5q0 -119 43 -193q53 -88 158 -88q114 0 172 82q49 70 49 182z" />
    <glyph glyph-name="e" unicode="e" horiz-adv-x="711" 
d="M680 315h-514q-6 -88 47 -153q59 -76 162 -76q155 0 182 135h111q-54 -235 -297 -235q-146 0 -235 99t-89 253q0 162 80 264q88 113 248 113q151 0 235 -125q78 -115 70 -275zM559 416q0 84 -57.5 142t-139.5 58q-79 0 -136.5 -59t-57.5 -141h391z" />
    <glyph glyph-name="f" unicode="f" horiz-adv-x="391" 
d="M393 866q-33 11 -63 11q-86 0 -86 -74v-105h131v-100h-131v-598h-113v598h-115l-2 100h117v105q0 176 188 176q50 0 74 -12v-101z" />
    <glyph glyph-name="g" unicode="g" horiz-adv-x="760" 
d="M676 47q0 -135 -64 -223q-80 -107 -241 -107q-131 0 -214 55.5t-83 151.5h112q2 -53 54.5 -83.5t130.5 -30.5q186 0 198 270l2 45q-65 -131 -211 -131q-159 0 -241 110q-70 97 -70 252q0 146 78 248q84 111 223 111q156 0 219 -117v100h107v-651zM563 360q0 254 -207 254
q-88 0 -139 -74.5t-51 -181.5q0 -110 43 -180q53 -84 153 -84q99 0 154 84q47 76 47 182z" />
    <glyph glyph-name="h" unicode="h" horiz-adv-x="737" 
d="M651 0h-110v481q0 47 -29 86q-39 47 -111 47q-92 0 -148 -56t-56 -159v-399h-113v965h113v-375q57 125 235 125q96 0 157.5 -59.5t61.5 -168.5v-487z" />
    <glyph glyph-name="i" unicode="i" horiz-adv-x="295" 
d="M205 825h-113v140h113v-140zM205 0h-113v698h113v-698z" />
    <glyph glyph-name="j" unicode="j" horiz-adv-x="295" 
d="M205 825h-113v140h113v-140zM205 -92q0 -176 -164 -176q-33 0 -57 10v100q28 -6 47 -6q61 0 61 90v772h113v-790z" />
    <glyph glyph-name="k" unicode="k" horiz-adv-x="688" 
d="M688 0h-143l-236 365l-104 -101v-264h-113v965h113v-572l311 305h152l-273 -254z" />
    <glyph glyph-name="l" unicode="l" horiz-adv-x="295" 
d="M205 0h-113v965h113v-965z" />
    <glyph glyph-name="m" unicode="m" horiz-adv-x="1130" 
d="M1047 0h-113v442q0 172 -125 172q-82 0 -134 -47t-52 -118v-449h-115v451q0 163 -121 163q-96 0 -149 -73q-41 -54 -41 -111v-430h-113v698h106v-102q82 119 228 119q149 0 184 -119q76 119 232 119q100 0 156.5 -54.5t56.5 -146.5v-514z" />
    <glyph glyph-name="n" unicode="n" horiz-adv-x="737" 
d="M651 0h-110v453q0 161 -133 161q-93 0 -152 -53t-59 -158v-403h-113v698h106v-112q66 129 246 129q101 0 158 -64.5t57 -165.5v-485z" />
    <glyph glyph-name="o" unicode="o" horiz-adv-x="760" 
d="M713 350q0 -157 -88 -260.5t-244 -103.5q-160 0 -248 104q-84 100 -84 260q0 158 87 261.5t245 103.5q156 0 244 -103.5t88 -261.5zM594 350q0 115 -58.5 189.5t-156.5 74.5q-94 0 -153.5 -75.5t-59.5 -188.5q0 -114 55 -186q58 -78 162 -78q94 0 152.5 76t58.5 188z" />
    <glyph glyph-name="p" unicode="p" horiz-adv-x="784" 
d="M737 332q0 -150 -80 -244q-86 -102 -233 -102q-148 0 -223 114v-364h-113v962h113v-96q59 115 227 115q111 0 193 -72q116 -100 116 -313zM618 332q0 117 -45 192q-51 90 -155 90q-115 0 -172 -84q-49 -69 -49 -182q0 -262 219 -262q92 0 147 73.5t55 172.5z" />
    <glyph glyph-name="q" unicode="q" horiz-adv-x="784" 
d="M696 -264h-112v364q-60 -114 -224 -114q-147 0 -231 108q-80 101 -80 250q0 205 115 303q82 70 192 70q154 0 228 -115v96h112v-962zM588 348q0 113 -49 182q-58 84 -172 84q-105 0 -156 -90q-45 -75 -45 -192q0 -99 55 -172.5t146 -73.5q221 0 221 262z" />
    <glyph glyph-name="r" unicode="r" horiz-adv-x="442" 
d="M442 592q-104 10 -174 -53q-75 -70 -75 -197v-342h-113v698h106v-151q27 71 88 119q76 57 168 47v-121z" />
    <glyph glyph-name="s" unicode="s" horiz-adv-x="662" 
d="M623 190q0 -98 -91 -155q-79 -49 -194 -49q-145 0 -221 64.5t-76 170.5h113q0 -135 180 -135q170 0 170 104q0 52 -53 80q-37 19 -138 41q-123 27 -176 60q-82 49 -82 143q0 98 82 154q74 47 178 47q275 0 275 -219h-111q0 61 -55 94q-45 24 -107 24q-141 0 -141 -94
q0 -43 53 -69q27 -13 109 -33q164 -41 199 -62q86 -49 86 -166z" />
    <glyph glyph-name="t" unicode="t" horiz-adv-x="418" 
d="M377 0h-84q-94 0 -129 30.5t-35 125.5v442h-117v100h117v211h113v-211h135v-100h-135v-430q0 -45 14 -56.5t47 -11.5h74v-100z" />
    <glyph glyph-name="u" unicode="u" horiz-adv-x="737" 
d="M651 0h-104v113q-76 -127 -236 -127q-227 0 -227 247v465h113v-473q0 -59 35.5 -99t101.5 -40q96 0 151.5 56.5t55.5 162.5v393h110v-698z" />
    <glyph glyph-name="v" unicode="v" horiz-adv-x="662" 
d="M645 698l-252 -698h-119l-256 698h127l195 -583l186 583h119z" />
    <glyph glyph-name="w" unicode="w" horiz-adv-x="1004" 
d="M981 698l-217 -698h-119l-141 559l-139 -559h-121l-221 698h124l154 -577l141 577h123l146 -571l153 571h117z" />
    <glyph glyph-name="x" unicode="x" horiz-adv-x="686" 
d="M676 0h-144l-192 289l-190 -289h-138l256 369l-237 329h143l166 -241l172 241h133l-235 -321z" />
    <glyph glyph-name="y" unicode="y" horiz-adv-x="662" 
d="M651 698l-299 -792q-53 -142 -131 -174q-24 -11 -61 -11q-41 0 -84 13v108q35 -18 69 -18q66 0 97 76l43 104l-275 694h129l201 -575l192 575h119z" />
    <glyph glyph-name="z" unicode="z" horiz-adv-x="637" 
d="M606 0h-575v88l411 510h-387v100h533v-75l-422 -523h440v-100z" />
    <glyph glyph-name="braceleft" unicode="{" horiz-adv-x="442" 
d="M410 -266h-84q-78 0 -119 61q-35 51 -35 131v242q0 127 -109 145v93q109 12 109 172v227q0 82 44 132t114 50h80v-80h-58q-73 0 -73 -121v-237q0 -150 -117 -187q119 -30 119 -204v-226q-2 -116 63 -116h66v-82z" />
    <glyph glyph-name="bar" unicode="|" horiz-adv-x="295" 
d="M193 -20h-91v1007h91v-1007z" />
    <glyph glyph-name="braceright" unicode="}" horiz-adv-x="442" 
d="M379 313q-109 -18 -109 -145v-242q0 -80 -34 -131q-39 -61 -117 -61h-86v82h65q68 0 64 116v226q0 174 119 204q-117 37 -117 187v237q0 121 -74 121h-57v80h80q69 0 113 -50t44 -132v-227q0 -160 109 -172v-93z" />
    <glyph glyph-name="asciitilde" unicode="~" horiz-adv-x="795" 
d="M702 365q-79 -117 -163 -117q-54 0 -136 45q-94 51 -153 51q-66 0 -111 -102l-47 67q60 117 164 117q51 0 147 -43q123 -55 138 -55q53 0 114 104z" />
    <glyph glyph-name="ellipsis_" unicode="&#x2026;" horiz-adv-x="989" 
d="M907 72q0 -33 -24.5 -56.5t-59.5 -23.5t-58.5 22.5t-23.5 57.5q0 34 25 59t57 25q35 0 59.5 -25t24.5 -59zM578 72q0 -33 -25 -56.5t-59 -23.5q-35 0 -58.5 22.5t-23.5 57.5q0 34 24.5 59t57.5 25q34 0 59 -25t25 -59zM248 72q0 -33 -24.5 -56.5t-59.5 -23.5t-58.5 22.5
t-23.5 57.5q0 34 24.5 59t57.5 25q35 0 59.5 -25t24.5 -59z" />
    <glyph glyph-name="quoteleft_" unicode="&#x2018;" horiz-adv-x="387" 
d="M295 795q0 -37 -27.5 -67t-66.5 -30q-109 0 -109 121q0 123 135 211l52 -37q-76 -47 -105 -116q19 4 33 4q35 0 61.5 -25t26.5 -61z" />
    <glyph glyph-name="quoteright_" unicode="&#x2019;" horiz-adv-x="387" 
d="M295 909q0 -123 -135 -211l-51 37q75 47 104 117q-18 -4 -33 -4q-35 0 -61.5 24.5t-26.5 61.5t27.5 66.5t66.5 29.5q109 0 109 -121z" />
    <glyph glyph-name="quotedblleft_" unicode="&#x201c;" horiz-adv-x="659" 
d="M567 795q0 -37 -27.5 -67t-66.5 -30q-108 0 -108 121q0 123 135 211l51 -37q-76 -47 -105 -116q19 4 33 4q35 0 61.5 -25t26.5 -61zM295 795q0 -37 -27.5 -67t-66.5 -30q-109 0 -109 121q0 123 135 211l52 -37q-76 -47 -105 -116q19 4 33 4q35 0 61.5 -25t26.5 -61z" />
    <glyph glyph-name="quotedblright_" unicode="&#x201d;" horiz-adv-x="659" 
d="M567 909q0 -123 -135 -211l-51 37q76 47 104 117q-18 -4 -32 -4q-35 0 -61.5 24.5t-26.5 61.5t27.5 66.5t66.5 29.5q108 0 108 -121zM295 909q0 -123 -135 -211l-51 37q75 47 104 117q-18 -4 -33 -4q-35 0 -61.5 24.5t-26.5 61.5t27.5 66.5t66.5 29.5q109 0 109 -121z
" />
    <glyph glyph-name="bullet_" unicode="&#x2022;" horiz-adv-x="737" 
d="M676 410q0 -127 -90 -217.5t-217 -90.5t-217.5 90.5t-90.5 217.5t90.5 217t217.5 90t217 -90t90 -217z" />
    <glyph glyph-name="endash_" unicode="&#x2013;" horiz-adv-x="748" 
d="M686 295h-625v92h625v-92z" />
    <glyph glyph-name="emdash_" unicode="&#x2014;" horiz-adv-x="1495" 
d="M1432 295h-1371v92h1371v-92z" />
    <glyph glyph-name="currency" unicode="&#xa4;" horiz-adv-x="840" 
d="M422 729q49 0 89 -18.5t69.5 -49t46 -72.5t16.5 -87q0 -101 -63 -164q-66 -68 -158 -68q-98 0 -162 68q-63 70 -63 164q0 88 65 160q64 67 160 67zM8 164l76 -76l145 148q82 -62 193 -62q53 0 105.5 18.5t82.5 43.5l150 -148l71 76l-145 145q59 78 59 193q0 110 -59 188
l145 150l-71 71l-150 -145q-32 27 -82.5 43t-105.5 16q-115 0 -193 -59l-145 145l-76 -71l148 -150q-62 -74 -62 -188q0 -111 62 -193z" />
    <glyph glyph-name="guillemotleft" unicode="&#xab;" horiz-adv-x="637" 
d="M557 115l-76 -37l-157 287l157 286l76 -35l-94 -251zM426 43l-74 -41l-295 363l295 364l74 -41l-217 -323z" />
    <glyph glyph-name="logicalnot" unicode="&#xac;" horiz-adv-x="748" 
d="M717 119v268h-686v-90h604v-178h82z" />
    <glyph glyph-name="registered" unicode="&#xae;" horiz-adv-x="1135" 
d="M1073 483q0 -211 -147.5 -357t-358.5 -146t-358.5 146t-147.5 357q0 209 147.5 356.5t358.5 147.5t358.5 -147.5t147.5 -356.5zM1008 483q0 189 -126 318t-313 129q-190 0 -316 -128t-126 -319q0 -186 128 -316t314 -130q187 0 313 130t126 316zM854 184h-104l-181 256
h-125v-256h-92v596h246q215 0 215 -172q0 -125 -141 -162zM721 612q0 105 -131 105h-146v-213h107q84 0 115 12q55 23 55 96z" />
    <glyph glyph-name="degree" unicode="&#xb0;" horiz-adv-x="541" 
d="M266 915q-42 0 -78.5 -16.5t-63.5 -44t-42.5 -64.5t-15.5 -77q0 -43 16 -80t43.5 -64.5t63.5 -43t77 -15.5q43 0 80.5 16t65 43.5t43.5 64.5t16 79t-16 79t-43.5 64t-65 43t-80.5 16zM266 858q31 0 58 -11.5t47.5 -31t32.5 -46t12 -56.5q0 -59 -45 -105q-45 -43 -105 -43
q-30 0 -56.5 12t-46 32t-31 47t-11.5 57q0 31 11 57.5t30.5 46t46 30.5t57.5 11z" />
    <glyph glyph-name="paragraph" unicode="&#xb6;" horiz-adv-x="727" 
d="M629 1112v-1356h-62v1356h-145v-1356h-55v805q-168 0 -263 62q-104 73 -104 235q0 152 94 229q90 66 248 66h389v-41h-102z" />
    <glyph glyph-name="guillemotright" unicode="&#xbb;" horiz-adv-x="637" 
d="M582 365l-295 -363l-74 41l217 322l-217 323l74 41zM315 365l-157 -287l-76 37l94 250l-94 251l76 35z" />
    <glyph glyph-name="divide" unicode="&#xf7;" horiz-adv-x="748" 
d="M455 592q0 -31 -24.5 -56.5t-57.5 -25.5q-31 0 -56.5 25.5t-25.5 56.5q0 33 24.5 57.5t57.5 24.5t57.5 -24.5t24.5 -57.5zM686 295h-625v92h625v-92zM455 90q0 -31 -24.5 -56.5t-57.5 -25.5q-31 0 -56.5 25.5t-25.5 56.5q0 33 24.5 57.5t57.5 24.5t57.5 -24.5t24.5 -57.5
z" />
    <glyph glyph-name="FL00A9h" unicode="&#xa9;" horiz-adv-x="1135" 
d="M1073 483q0 -211 -147.5 -357t-358.5 -146t-358.5 146t-147.5 357q0 209 147.5 356.5t358.5 147.5t358.5 -147.5t147.5 -356.5zM1008 483q0 189 -126 318t-313 129q-190 0 -316 -128t-126 -319q0 -186 128 -316t314 -130q187 0 313 130t126 316zM858 403
q-8 -110 -87 -175.5t-189 -65.5q-148 0 -237 91t-89 230q0 142 87 230t228 88q113 0 189 -58q84 -63 98 -178h-90q-35 156 -195 156q-106 0 -165.5 -65.5t-59.5 -170.5q0 -102 63.5 -172.5t168.5 -70.5q73 0 125.5 45t62.5 116h90z" />
    <glyph glyph-name="periodcentered" unicode="&#xb7;" horiz-adv-x="338" 
d="M170 520q-33 0 -53 -20q-21 -24 -21 -51q0 -33 21 -54q11 -11 24.5 -15.5t28.5 -4.5q29 0 50.5 21.5t21.5 52.5q0 29 -20.5 50t-51.5 21z" />
    <glyph glyph-name="periodcentered" unicode="&#x2219;" horiz-adv-x="338" 
d="M170 520q-33 0 -53 -20q-21 -24 -21 -51q0 -33 21 -54q11 -11 24.5 -15.5t28.5 -4.5q29 0 50.5 21.5t21.5 52.5q0 29 -20.5 50t-51.5 21z" />
    <glyph glyph-name="DEL" unicode="&#xf71b;" 
d="M0 -3v1211h-478v-1211h478z" />
    <glyph glyph-name="f700_" unicode="&#xf700;" horiz-adv-x="735" 
d="M690 463q0 -238 -129 -363q-121 -114 -321 -102l-117 451l-41 63h145l103 -408q108 13 176.5 108t68.5 251q0 125 -66.5 196.5t-178.5 71.5q-191 0 -230 -139h-110q10 100 104 171t236 71q86 0 151 -27q60 31 60 74h125q0 -82 -97 -125q121 -99 121 -293z" />
    <glyph glyph-name="f701_" unicode="&#xf701;" 
d="M-266 922h-563v90h563v-90z" />
    <glyph glyph-name="f702_" unicode="&#xf702;" 
d="M-266 922h-563v90h448v104h115v-194z" />
    <glyph glyph-name="f703_" unicode="&#xf703;" 
d="M-207 1024q0 -43 -32.5 -72.5t-82.5 -29.5h-507v90h389v12q0 43 33.5 72.5t84.5 29.5q50 0 82.5 -29.5t32.5 -72.5zM-274 1024q0 43 -52 43q-47 0 -47 -43q0 -45 47 -45q52 0 52 45z" />
    <glyph glyph-name="f704_" unicode="&#xf704;" 
d="M-266 922h-563v90h272v104h115v-104h61v104h115v-194z" />
    <glyph glyph-name="f705_" unicode="&#xf705;" 
d="M-289 922h-114v194h114v-194z" />
    <glyph glyph-name="f706_" unicode="&#xf706;" 
d="M20 922h-407v39q0 51 -55 51h-37v92h69q117 0 117 -92h313v-90z" />
    <glyph glyph-name="f707_" unicode="&#xf707;" 
d="M18 922h-337v86q0 55 -52 55h-14l-96 -59l-99 59h-8q-51 0 -51 -55v-4h61v-82h-157v94q0 135 153 135h13l90 -55l88 55h14q152 0 152 -135v-4h243v-90z" />
    <glyph glyph-name="f708_" unicode="&#xf708;" 
d="M-240 1020h-98v-98h-115v98h-98v86h98v98h115v-98h98v-86z" />
    <glyph glyph-name="f709_" unicode="&#xf709;" 
d="M-236 1006h-100q-72 0 -72 -64v-20h-114v47q0 65 43 102t106 37h137v-102z" />
    <glyph glyph-name="f70a_" unicode="&#xf70a;" 
d="M-59 922h-115v194h115v-194z" />
    <glyph glyph-name="f70b_" unicode="&#xf70b;" 
d="M47 922h-336v39q0 51 -55 51h-37v92h70q116 0 116 -92h242v-90z" />
    <glyph glyph-name="f70c_" unicode="&#xf70c;" 
d="M-41 922h-190v86q0 55 -52 55h-14l-96 -59l-99 59h-8q-51 0 -51 -55v-4h62v-82h-158v94q0 135 153 135h13l90 -55l88 55h14q152 0 152 -135v-4h96v-90z" />
    <glyph glyph-name="f70d_" unicode="&#xf70d;" 
d="M-59 1020h-99v-98h-114v98h-99v86h99v98h114v-98h99v-86z" />
    <glyph glyph-name="f70e_" unicode="&#xf70e;" 
d="M-39 1006h-100q-72 0 -72 -64v-20h-115v47q0 65 43 102t107 37h137v-102z" />
    <glyph glyph-name="f70f_" unicode="&#xf70f;" horiz-adv-x="1278" 
d="M1217 229q0 -129 -99 -190q-80 -49 -198 -49q-119 0 -197 49q-100 61 -100 190v328q0 174 -232 174q-88 0 -153.5 -33.5t-75.5 -79.5q67 -51 67 -83q0 -23 -26.5 -58t-26.5 -63v-312h148v-102h-263v422q0 27 32 58.5t32 47.5q0 31 -86 72q8 105 112.5 169.5t241.5 64.5
q146 0 240 -62q104 -72 104 -203v-323q0 -156 183 -156q182 0 182 156v573h115v-590z" />
    <glyph glyph-name="f710_" unicode="&#xf710;" 
d="M18 922h-581v159h114v-69h467v-90z" />
    <glyph glyph-name="f711_" unicode="&#xf711;" 
d="M-205 1020q0 -47 -32.5 -77t-84.5 -30q-51 0 -83.5 30t-32.5 77t32.5 76.5t83.5 29.5q52 0 84.5 -29.5t32.5 -76.5zM-272 1020q0 45 -50 45q-49 0 -49 -45t49 -45q50 0 50 45z" />
    <glyph glyph-name="f712_" unicode="&#xf712;" 
d="M-203 1110h-395q-109 0 -109 -61q0 -23 19 -39h82l174 73l196 -79v-95l-194 82l-162 -69h-141q-70 43 -70 127q0 65 54.5 108t150.5 43h395v-90z" />
    <glyph glyph-name="f713_" unicode="&#xf713;" 
d="M-266 1178h-115v153h115v-153z" />
    <glyph glyph-name="f714_" unicode="&#xf714;" 
d="M-150 1178h-303v34q0 48 -49 48h-35v81h64q104 0 104 -81h219v-82z" />
    <glyph glyph-name="f715_" unicode="&#xf715;" 
d="M-18 1178h-172v77q0 50 -46 50h-14l-86 -54l-88 54h-8q-45 0 -45 -50v-4h55v-73h-141v86q0 120 137 120h12l80 -49l80 49h12q138 0 138 -120v-4h86v-82z" />
    <glyph glyph-name="f716_" unicode="&#xf716;" 
d="M-188 1255h-88v-77h-95v77h-88v68h88v78h95v-78h88v-68z" />
    <glyph glyph-name="f717_" unicode="&#xf717;" 
d="M-207 1190h-90q-65 0 -65 -57v-19h-103v41q0 59 39 93t96 34h123v-92z" />
    <glyph glyph-name="_e00_" unicode="&#xe00;" horiz-adv-x="205" 
 />
    <glyph glyph-name="afii59681" unicode="&#xe01;" horiz-adv-x="778" 
d="M717 0h-115v557q0 174 -221 174q-86 0 -147.5 -33.5t-71.5 -79.5q67 -51 67 -83q0 -23 -26.5 -58t-26.5 -63v-414h-115v422q0 27 32 58.5t32 47.5q0 27 -86 72q8 105 111 170q96 64 233 64q143 0 233 -62q101 -72 101 -203v-569z" />
    <glyph glyph-name="afii59682_" unicode="&#xe02;" horiz-adv-x="696" 
d="M635 229q0 -129 -94 -192q-74 -49 -193 -49q-117 0 -192 49q-95 63 -95 192v289q0 64 76 107t76 59q0 37 -63 37h-101v98h105q174 0 174 -125q0 -65 -76 -110t-76 -82v-258q0 -156 172 -156t172 156v575h115v-590z" />
    <glyph glyph-name="afii59683_" unicode="&#xe03;" horiz-adv-x="707" 
d="M645 229q0 -129 -94 -192q-74 -49 -193 -49q-116 0 -192 49q-94 63 -94 192v267q0 63 77.5 112t77.5 78q0 27 -18 47l-84 -67l-117 94l76 65l59 -47l60 47q135 9 135 -129q0 -69 -76 -127.5t-76 -93.5v-231q0 -156 172 -156t172 156v575h115v-590z" />
    <glyph glyph-name="afii59684_" unicode="&#xe04;" horiz-adv-x="799" 
d="M737 0h-114v557q0 86 -68 133q-59 41 -156 41q-96 0 -155 -41q-68 -47 -68 -133v-84h250v-102h-250v-371h-115v569q0 131 109 203q94 62 229 62q138 0 230 -62q108 -72 108 -203v-569z" />
    <glyph glyph-name="afii59685_" unicode="&#xe05;" horiz-adv-x="799" 
d="M737 0h-114v586q0 112 -88 139l-134 -111l-137 111q-88 -27 -88 -139v-113h252v-104h-252v-369h-115v596q0 94 63.5 160.5t170.5 77.5l104 -84l107 84q104 -11 167.5 -77.5t63.5 -160.5v-596z" />
    <glyph glyph-name="afii59686_" unicode="&#xe06;" horiz-adv-x="809" 
d="M748 244q0 -254 -275 -254q-164 0 -287 125v-115h-114v496q0 63 77.5 112t77.5 78q0 27 -18 47l-84 -67l-117 94l76 65l59 -47l60 47q135 9 135 -129q0 -69 -76 -127.5t-76 -93.5v-143q0 -78 78 -156q86 -86 199 -86q170 0 170 162v567h115v-575z" />
    <glyph glyph-name="afii59687_" unicode="&#xe07;" horiz-adv-x="713" 
d="M674 446q0 -186 -78 -301q-96 -145 -293 -145h-94l-209 666l96 77l201 -641h25q112 0 176 105q59 94 59 237q0 287 -242 287q-32 0 -69 -6v102q43 7 82 7q178 0 266 -111q80 -100 80 -277z" />
    <glyph glyph-name="afii59688_" unicode="&#xe08;" horiz-adv-x="735" 
d="M690 463q0 -238 -129 -363q-121 -114 -321 -102l-117 451l-41 63h145l103 -408q108 13 176.5 108t68.5 251q0 125 -66.5 196.5t-178.5 71.5q-191 0 -230 -139h-110q10 100 104 171t236 71q164 0 262 -96.5t98 -274.5z" />
    <glyph glyph-name="afii59689_" unicode="&#xe09;" horiz-adv-x="788" 
d="M727 0h-115v94q-118 -104 -278 -104q-262 0 -262 252v192l-25 62h139v-242q0 -166 158 -166q113 0 193 64q75 57 75 131v274q0 174 -233 174q-182 0 -221 -117h-121q26 111 131 170q90 50 211 50q149 0 242 -62q106 -72 106 -203v-569z" />
    <glyph glyph-name="afii59690_" unicode="&#xe0a;" horiz-adv-x="762" 
d="M719 322q0 -162 -109 -248q-100 -78 -266 -76l-283 2v819h115v-717l162 -4q111 -2 184 49q82 62 82 172q0 93 -58.5 150t-150.5 57h-108v103h108q82 0 131 43q60 51 52 147h112q4 -18 4 -39q0 -147 -135 -205q160 -65 160 -253z" />
    <glyph glyph-name="afii59691_" unicode="&#xe0b;" horiz-adv-x="780" 
d="M739 322q0 -162 -108 -246q-99 -76 -266 -76h-283v496q0 63 57.5 112t57.5 78q0 27 -19 47l-84 -67l-114 94l73 65l60 -47l59 47q135 9 135 -129q0 -69 -55 -125.5t-55 -95.5v-373h161q115 0 185 50q82 57 82 167q0 93 -58.5 150t-150.5 57h-88v103h88q82 0 131 43
q59 51 51 147h113q4 -18 4 -39q0 -147 -135 -205q159 -65 159 -253z" />
    <glyph glyph-name="afii59692_" unicode="&#xe0c;" horiz-adv-x="1257" 
d="M1196 242q0 -252 -252 -252q-145 0 -227 100v-90h-115v557q0 174 -221 174q-86 0 -147.5 -33.5t-71.5 -79.5q67 -51 67 -83q0 -23 -26.5 -58t-26.5 -63v-312h127v-102h-242v422q0 27 32 58.5t32 47.5q0 27 -86 72q8 105 111 170q96 64 233 64q143 0 233 -62
q101 -72 101 -203v-286q0 -72 62.5 -133.5t152.5 -61.5q149 0 149 164v567h115v-577z" />
    <glyph glyph-name="afii59693_" unicode="&#xe0d;" horiz-adv-x="1257" 
d="M1196 43q0 -123 -94 -190q-82 -58 -209 -58h-291v105h291q82 0 135 38.5t53 100.5v35q-84 -82 -225 -82q-254 0 -254 233v332q0 174 -221 174q-86 0 -147.5 -33.5t-71.5 -79.5q67 -51 67 -83q0 -23 -26.5 -58t-26.5 -63v-312h127v-102h-242v422q0 27 32 58.5t32 47.5
q0 27 -86 72q8 105 111 170q96 64 233 64q143 0 233 -62q101 -72 101 -203v-325q0 -152 162 -152q82 0 142 49t60 135v543h115v-776z" />
    <glyph glyph-name="afii59694_" unicode="&#xe0e;" horiz-adv-x="799" 
d="M737 -305h-114l-121 119l-137 -119h-248v104h200l185 152l121 -103v709q0 174 -222 174q-86 0 -147 -33.5t-72 -79.5q68 -51 68 -83q0 -23 -26.5 -58t-26.5 -63v-414h-187v104h72v318q0 27 31.5 58.5t31.5 47.5q0 27 -86 72q9 105 111 170q96 64 233 64q144 0 234 -62
q100 -72 100 -203v-874z" />
    <glyph glyph-name="afii59695_" unicode="&#xe0f;" horiz-adv-x="799" 
d="M737 -305h-114l-86 100l-105 -119l-108 119l-93 -100h-186v104h135l146 148l104 -111l109 111l84 -90v700q0 174 -222 174q-86 0 -147 -33.5t-72 -79.5q68 -51 68 -83q0 -23 -26.5 -58t-26.5 -63v-414h-187v104h72v318q0 27 31.5 58.5t31.5 47.5q0 27 -86 72
q9 105 111 170q96 64 233 64q144 0 234 -62q100 -72 100 -203v-874z" />
    <glyph glyph-name="afii59696_" unicode="&#xe10;" horiz-adv-x="735" 
d="M690 463q0 -238 -129 -363q-121 -114 -321 -102l-117 451l-41 63h145l103 -408q108 13 176.5 108t68.5 251q0 125 -66.5 196.5t-178.5 71.5q-191 0 -230 -139h-110q10 100 104 171t236 71q86 0 151 -27q60 31 60 74h125q0 -82 -97 -125q121 -99 121 -293zM655 -305h-114
l-78 84l-107 -98l-106 98l-92 -84h-154v104h119l129 111l104 -94l107 94l78 -76v127h114v-266z" />
    <glyph glyph-name="afii59697_" unicode="&#xe11;" horiz-adv-x="819" 
d="M758 0h-115v600q0 129 -74 129q-47 0 -143 -172q-78 -137 -153.5 -319.5t-75.5 -229.5v-8h-115v492q0 63 62.5 113t62.5 81q0 27 -19 47l-84 -67l-114 94l73 65l60 -47l59 47q135 9 135 -129q0 -69 -60 -126.5t-60 -94.5v-174q41 133 145 309q129 221 231 221
q185 0 185 -213v-618z" />
    <glyph glyph-name="afii59698_" unicode="&#xe12;" horiz-adv-x="1288" 
d="M1227 242q0 -252 -252 -252q-146 0 -227 100v-90h-115v676l-111 -115l-174 154q-90 -23 -146.5 -105t-56.5 -194q0 -140 67 -228t179 -88q47 0 98 17v-113q-55 -10 -104 -10q-170 0 -264 123q-90 114 -90 297q0 170 95 280.5t255 136.5l139 -124l113 112h115v-536
q0 -72 62 -133.5t153 -61.5q149 0 149 164v567h115v-577z" />
    <glyph glyph-name="afii59699_" unicode="&#xe13;" horiz-adv-x="1257" 
d="M1196 0h-115v90q-82 -100 -227 -100q-252 0 -252 252v315q0 174 -221 174q-86 0 -147.5 -33.5t-71.5 -79.5q67 -51 67 -83q0 -23 -26.5 -58t-26.5 -63v-312h127v-102h-242v422q0 27 32 58.5t32 47.5q0 27 -86 72q8 105 111 170q96 64 233 64q143 0 233 -62
q101 -72 101 -203v-317q0 -164 149 -164q90 0 152.5 61.5t62.5 133.5v536h115v-819z" />
    <glyph glyph-name="afii59700_" unicode="&#xe14;" horiz-adv-x="805" 
d="M743 0h-114v717h-217q-115 0 -191 -93.5t-76 -215.5q0 -138 63.5 -224t174.5 -86q47 0 102 19v-113q-57 -10 -108 -10q-168 0 -260 119q-86 112 -86 295q0 174 110.5 292.5t278.5 118.5h323v-819z" />
    <glyph glyph-name="afii59701_" unicode="&#xe15;" horiz-adv-x="809" 
d="M748 0h-115v682l-123 -121l-162 154q-90 -23 -146.5 -105t-56.5 -194q0 -140 67 -228t179 -88q47 0 98 17v-113q-55 -10 -104 -10q-170 0 -264 123q-90 114 -90 297q0 170 95 280.5t255 136.5l129 -124l123 112h115v-819z" />
    <glyph glyph-name="afii59702_" unicode="&#xe16;" horiz-adv-x="778" 
d="M717 0h-115v557q0 174 -221 174q-86 0 -147.5 -33.5t-71.5 -79.5q67 -51 67 -83q0 -23 -26.5 -58t-26.5 -63v-312h127v-102h-242v422q0 27 32 58.5t32 47.5q0 27 -86 72q8 105 111 170q96 64 233 64q143 0 233 -62q101 -72 101 -203v-569z" />
    <glyph glyph-name="afii59703_" unicode="&#xe17;" horiz-adv-x="799" 
d="M737 0h-114v567q0 162 -170 162q-113 0 -199 -86q-78 -78 -78 -156v-487h-115v819h115v-114q123 126 287 126q274 0 274 -256v-575z" />
    <glyph glyph-name="afii59704_" unicode="&#xe18;" horiz-adv-x="762" 
d="M721 279q0 -279 -315 -279h-345v426h115v-324h213q217 0 217 174q0 144 -198 168q-222 27 -248 35q-125 39 -119 154q6 94 100 149q88 52 224 52q317 0 342 -220h-117q-23 117 -225 117q-86 0 -147.5 -26.5t-61.5 -71.5t86 -64q26 -6 180 -20q299 -29 299 -270z" />
    <glyph glyph-name="afii59705_" unicode="&#xe19;" horiz-adv-x="799" 
d="M737 0h-114v115q-123 -125 -287 -125q-275 0 -275 254v575h115v-567q0 -162 170 -162q113 0 199 86q78 78 78 156v487h114v-819z" />
    <glyph glyph-name="afii59706_" unicode="&#xe1a;" horiz-adv-x="799" 
d="M737 248q0 -131 -110 -201q-92 -59 -228 -59q-135 0 -229 59q-109 70 -109 201v571h115v-557q0 -88 70 -133q59 -41 153 -41q95 0 159.5 43t64.5 131v557h114v-571z" />
    <glyph glyph-name="afii59707_" unicode="&#xe1b;" horiz-adv-x="799" 
d="M737 248q0 -131 -110 -201q-92 -59 -228 -59q-135 0 -229 59q-109 70 -109 201v571h115v-557q0 -88 70 -133q59 -41 153 -41q95 0 159.5 43t64.5 131v823h114v-837z" />
    <glyph glyph-name="afii59708_" unicode="&#xe1c;" horiz-adv-x="1073" 
d="M1063 819l-238 -819h-98l-190 612l-191 -612h-98l-238 819h260v-102h-112l141 -512l188 614h99l188 -614l172 614h117z" />
    <glyph glyph-name="afii59709_" unicode="&#xe1d;" horiz-adv-x="1073" 
d="M1139 1085l-314 -1085h-98l-190 612l-191 -612h-98l-238 819h260v-102h-112l141 -512l188 614h99l188 -614l248 880h117z" />
    <glyph glyph-name="afii59710_" unicode="&#xe1e;" horiz-adv-x="1073" 
d="M1063 819l-238 -819h-98l-190 612l-191 -612h-98l-238 819h117l172 -614l188 614h99l188 -614l172 614h117z" />
    <glyph glyph-name="afii59711_" unicode="&#xe1f;" horiz-adv-x="1073" 
d="M1139 1085l-314 -1085h-98l-190 612l-191 -612h-98l-238 819h117l172 -614l188 614h99l188 -614l248 880h117z" />
    <glyph glyph-name="afii59712_" unicode="&#xe20;" horiz-adv-x="799" 
d="M737 0h-114v557q0 174 -222 174q-86 0 -147 -33.5t-72 -79.5q68 -51 68 -83q0 -23 -26.5 -58t-26.5 -63v-414h-187v104h72v318q0 27 31.5 58.5t31.5 47.5q0 27 -86 72q9 105 111 170q96 64 233 64q144 0 234 -62q100 -72 100 -203v-569z" />
    <glyph glyph-name="afii59713_" unicode="&#xe21;" horiz-adv-x="799" 
d="M737 244q0 -254 -274 -254q-172 0 -287 125v-115h-115v819h115v-487q0 -78 78 -156q86 -86 199 -86q170 0 170 162v567h114v-575z" />
    <glyph glyph-name="afii59714_" unicode="&#xe22;" horiz-adv-x="809" 
d="M748 0l-365 -4q-348 -6 -348 254q0 86 57 147q47 52 96 60q-47 6 -84 45q-49 49 -49 123q0 137 144 184q86 29 200 10v-104q-39 6 -73 6q-156 0 -156 -98q0 -105 180 -105h283v301h115v-819zM633 102v314h-260q-221 0 -221 -162q0 -164 254 -158z" />
    <glyph glyph-name="afii59715_" unicode="&#xe23;" horiz-adv-x="731" 
d="M700 258q0 -270 -342 -270q-333 0 -338 303h117q0 -203 221 -203q228 0 228 168q0 76 -60 111q-41 22 -139 39q-203 32 -235 45q-111 43 -111 159q0 99 96 162q90 62 217 62q133 0 226 -58q104 -65 108 -184h-115q-6 67 -77 106q-62 33 -146 33q-76 0 -135 -30.5
t-59 -84.5q0 -53 77 -77q39 -13 168 -29q142 -16 205 -59q94 -60 94 -193z" />
    <glyph glyph-name="afii59716_" unicode="&#xe24;" horiz-adv-x="778" 
d="M602 557q0 174 -221 174q-86 0 -147.5 -33.5t-71.5 -79.5q67 -51 67 -83q0 -23 -26.5 -58t-26.5 -63v-312h127v-102h-242v422q0 27 32 58.5t32 47.5q0 27 -86 72q8 105 111 170q96 64 233 64q143 0 233 -62q101 -72 101 -203v-813h-115v809v-8z" />
    <glyph glyph-name="afii59717_" unicode="&#xe25;" horiz-adv-x="795" 
d="M733 0h-115v451q-61 -37 -286 -60q-187 -18 -187 -158q0 -139 168 -139q58 0 127 17v-109q-75 -8 -135 -8q-274 0 -274 239q0 218 254 254l207 23q120 22 120 98q0 58 -59 90.5t-152 32.5q-88 0 -153.5 -37t-75.5 -102h-117q19 123 125 186q92 56 223 56q138 0 224 -52
q106 -63 106 -192v-590z" />
    <glyph glyph-name="afii59718_" unicode="&#xe26;" horiz-adv-x="799" 
d="M737 -244h-114v801q0 174 -222 174q-86 0 -147 -33.5t-72 -79.5q68 -51 68 -83q0 -23 -26.5 -58t-26.5 -63v-414h-187v104h72v318q0 27 31.5 58.5t31.5 47.5q0 27 -86 72q9 105 111 170q96 64 233 64q144 0 234 -62q100 -72 100 -203v-813z" />
    <glyph glyph-name="afii59719_" unicode="&#xe27;" horiz-adv-x="760" 
d="M729 410q0 -220 -104 -328q-93 -94 -252 -94q-142 0 -230 74.5t-112 201.5h121q41 -176 221 -176q241 0 241 322q0 321 -241 321q-180 0 -221 -176h-121q24 127 112 203t230 76q159 0 252 -95q104 -110 104 -329z" />
    <glyph glyph-name="afii59720_" unicode="&#xe28;" horiz-adv-x="799" 
d="M737 0h-114v557q0 86 -68 133q-59 41 -156 41q-96 0 -155 -41q-68 -47 -68 -133v-84h250v-102h-250v-371h-115v569q0 131 109 203q94 62 229 62q72 0 133 -19q50 21 50 66h125q0 -66 -74 -113q104 -70 104 -199v-569z" />
    <glyph glyph-name="afii59721_" unicode="&#xe29;" horiz-adv-x="809" 
d="M799 422h-62v-174q0 -131 -110 -201q-92 -59 -228 -59q-135 0 -229 59q-109 70 -109 201v571h115v-557q0 -88 70 -133q59 -41 153 -41q95 0 159.5 43t64.5 131v160h-254v158h114v-56h140v295h114v-295h62v-102z" />
    <glyph glyph-name="afii59722_" unicode="&#xe2a;" horiz-adv-x="795" 
d="M733 0h-115v451q-61 -37 -286 -60q-187 -18 -187 -158q0 -139 166 -139q58 0 129 17v-109q-75 -8 -135 -8q-274 0 -274 239q0 218 254 254l207 23q120 22 120 98q0 58 -59 90.5t-152 32.5q-88 0 -153.5 -37t-75.5 -102h-117q19 123 125 186q92 56 223 56q78 0 138 -17
q45 21 45 64h125q0 -62 -68 -109q90 -61 90 -182v-590z" />
    <glyph glyph-name="afii59723_" unicode="&#xe2b;" horiz-adv-x="799" 
d="M696 717h-389v102h389v-102zM737 0h-114v422q0 162 -170 162q-107 0 -192 -80t-85 -160v-344h-115v819h115v-262q117 129 287 129q274 0 274 -254v-432z" />
    <glyph glyph-name="afii59724_" unicode="&#xe2c;" horiz-adv-x="1073" 
d="M1133 1065q-25 -186 -224 -209q113 -41 113 -149q0 -25 -8 -52l-189 -655h-98l-190 612l-191 -612h-98l-238 819h117l172 -614l188 614h99l188 -614l133 471q4 12 4 24q0 48 -42 83.5t-93 35.5h-82v103h117q178 0 205 143h117z" />
    <glyph glyph-name="afii59725_" unicode="&#xe2d;" horiz-adv-x="844" 
d="M813 410q0 -213 -115 -324q-102 -98 -276 -98q-172 0 -277 98q-114 113 -114 324q0 59 12 125h268v-105h-166v-20q0 -160 78 -244q72 -78 199 -78t201.5 81t74.5 241q0 159 -77 243q-72 78 -199 78q-174 0 -238 -139h-127q33 102 117 166q98 76 248 76q174 0 276 -101
q115 -110 115 -323z" />
    <glyph glyph-name="afii59726_" unicode="&#xe2e;" horiz-adv-x="844" 
d="M813 410q0 -213 -115 -324q-102 -98 -276 -98q-172 0 -277 98q-114 113 -114 324q0 59 12 125h268v-105h-166v-20q0 -160 78 -244q72 -78 199 -78t201.5 81t74.5 241q0 159 -77 243q-72 78 -199 78q-174 0 -238 -139h-127q33 102 117 166q98 76 248 76q78 0 139 -21
q47 29 47 68h125q0 -68 -76 -113q156 -109 156 -358z" />
    <glyph glyph-name="afii59727_" unicode="&#xe2f;" horiz-adv-x="723" 
d="M662 0h-113v598q-41 -53 -113 -90q-84 -45 -174 -45q-92 0 -158 47q-73 53 -73 145q0 82 73 131q66 41 160 41q60 0 107 -18v-113q-52 33 -115 33q-113 0 -113 -76q0 -41 36 -64.5t85 -23.5q115 0 188.5 72t94.5 186h115v-823z" />
    <glyph glyph-name="afii59729_" unicode="&#xe30;" horiz-adv-x="307" 
d="M276 645q0 -51 -35.5 -87t-86.5 -36q-52 0 -87.5 36t-35.5 87t35.5 87t87.5 36q51 0 86.5 -36t35.5 -87zM276 174q0 -51 -35.5 -87t-86.5 -36q-52 0 -87.5 36t-35.5 87t35.5 87t87.5 36q51 0 86.5 -36t35.5 -87zM201 645q0 47 -47 47q-48 0 -48 -47t48 -47q47 0 47 47z
M201 174q0 47 -47 47q-48 0 -48 -47t48 -47q47 0 47 47z" />
    <glyph glyph-name="afii59728_" unicode="&#xe31;" 
d="M170 922h-561v159h115v-69h446v-90z" />
    <glyph glyph-name="afii59730_" unicode="&#xe32;" horiz-adv-x="420" 
d="M358 0h-114v614q0 107 -154 107q-37 0 -80 -8v104q47 8 92 8q256 0 256 -188v-637z" />
    <glyph glyph-name="afii59731_" unicode="&#xe33;" horiz-adv-x="420" 
d="M-2 1020q0 -47 -33 -77t-84 -30t-84 30t-33 77t33 76.5t84 29.5t84 -29.5t33 -76.5zM358 0h-114v614q0 107 -154 107q-37 0 -80 -8v104q47 8 92 8q256 0 256 -188v-637zM-70 1020q0 45 -49 45t-49 -45t49 -45t49 45z" />
    <glyph glyph-name="afii59732_" unicode="&#xe34;" 
d="M-59 922h-605v90h605v-90z" />
    <glyph glyph-name="afii59733_" unicode="&#xe35;" 
d="M-59 922h-605v90h490v104h115v-194z" />
    <glyph glyph-name="afii59734_" unicode="&#xe36;" 
d="M0 1024q0 -43 -33 -72.5t-82 -29.5h-549v90h431v12q0 43 33.5 72.5t84.5 29.5q49 0 82 -29.5t33 -72.5zM-68 1024q0 43 -51 43q-47 0 -47 -43q0 -45 47 -45q51 0 51 45z" />
    <glyph glyph-name="afii59735_" unicode="&#xe37;" 
d="M-59 922h-605v90h314v104h114v-104h62v104h115v-194z" />
    <glyph glyph-name="afii59736_" unicode="&#xe38;" 
d="M-59 -326h-115v156h-62v90h177v-246z" />
    <glyph glyph-name="afii59737_" unicode="&#xe39;" 
d="M-59 -211q0 -135 -183 -135q-182 0 -182 135v41h-41v90h156v-125q0 -53 67 -53q68 0 68 53v125h115v-131z" />
    <glyph glyph-name="afii59738_" unicode="&#xe3a;" 
d="M-33 -164q0 -35 -24.5 -59.5t-59.5 -24.5t-59.5 24.5t-24.5 59.5t24.5 59.5t59.5 24.5t59.5 -24.5t24.5 -59.5z" />
    <glyph glyph-name="f71c_" unicode="&#xf71c;" horiz-adv-x="492" 
 />
    <glyph glyph-name="f71d_" unicode="&#xf71d;" horiz-adv-x="492" 
d="M454 -191v191h-416v-191h34v72q17 11 36 17t40 6h187q53 0 86 -27v-68h33z" />
    <glyph glyph-name="afii59743_" unicode="&#xe3f;" horiz-adv-x="907" 
d="M848 270q0 -120 -84 -195t-213 -75h-51v-152h-90v152h-308v965h308v153h90v-153h22q150 0 226 -76q61 -62 61 -152q0 -164 -139 -227q178 -59 178 -240zM682 698q0 95 -57 131q-39 25 -125 27v-305q182 10 182 147zM410 551v305h-181v-305h181zM723 287q0 147 -223 155
v-333q104 2 155 30q68 41 68 148zM410 109v333h-181v-333h181z" />
    <glyph glyph-name="afii59744_" unicode="&#xe40;" horiz-adv-x="319" 
d="M217 0h-115v819h115v-819z" />
    <glyph glyph-name="afii59745_" unicode="&#xe41;" horiz-adv-x="557" 
d="M455 0h-115v819h115v-819zM217 0h-115v819h115v-819z" />
    <glyph glyph-name="afii59746_" unicode="&#xe42;" horiz-adv-x="360" 
d="M473 1143l-252 4q-78 2 -78 -27q0 -20 47.5 -61t47.5 -101v-958h-115v950q0 49 -47 95.5t-47 91.5q0 49 44 81.5t128 30.5l272 -4v-102z" />
    <glyph glyph-name="afii59747_" unicode="&#xe43;" horiz-adv-x="360" 
d="M334 1112q0 -43 -48 -90t-48 -96v-926h-115v934q0 63 47 105t47 69q0 59 -92 59q-113 0 -107 -104h-114q-8 90 51 148.5t166 58.5q213 0 213 -158z" />
    <glyph glyph-name="afii59748_" unicode="&#xe44;" horiz-adv-x="360" 
d="M295 1135q0 -29 -28.5 -67t-28.5 -67v-1001h-115v1008q0 36 29.5 67t29.5 41q0 14 -45 14h-24l-88 -53l-185 99l86 71l97 -57l73 43h49q148 0 150 -98z" />
    <glyph glyph-name="afii59749_" unicode="&#xe45;" horiz-adv-x="420" 
d="M358 -244h-114v858q0 107 -154 107q-37 0 -80 -8v104q47 8 92 8q256 0 256 -188v-881z" />
    <glyph glyph-name="afii59750_" unicode="&#xe46;" horiz-adv-x="727" 
d="M666 -244h-115v924l-119 -115l-168 150q-117 -13 -117 -105t119 -92q19 0 35 2v-108q-123 -9 -196.5 43.5t-73.5 154.5q0 88 76.5 148.5t199.5 60.5l125 -108l119 108h115v-1063z" />
    <glyph glyph-name="afii59751_" unicode="&#xe47;" 
d="M-88 1110h-395q-109 0 -109 -61q0 -23 19 -39h81l175 73l196 -79v-95l-194 82l-162 -69h-141q-70 43 -70 127q0 65 54 108t151 43h395v-90z" />
    <glyph glyph-name="afii59752_" unicode="&#xe48;" 
d="M-59 1178h-115v153h115v-153z" />
    <glyph glyph-name="afii59753_" unicode="&#xe49;" 
d="M39 1178h-301v34q0 48 -49 48h-35v81h63q105 0 105 -81h217v-82z" />
    <glyph glyph-name="afii59754_" unicode="&#xe4a;" 
d="M152 1178h-170v77q0 50 -45 50h-15l-86 -54l-88 54h-8q-45 0 -45 -50v-4h55v-73h-141v86q0 120 137 120h12l80 -49l80 49h12q136 0 136 -120v-4h86v-82z" />
    <glyph glyph-name="afii59755_" unicode="&#xe4b;" 
d="M16 1255h-86v-77h-94v77h-88v68h88v78h94v-78h86v-68z" />
    <glyph glyph-name="afii59756_" unicode="&#xe4c;" 
d="M0 1190h-88q-66 0 -66 -57v-19h-102v41q0 59 39 93t96 34h121v-92z" />
    <glyph glyph-name="afii59757_" unicode="&#xe4d;" 
d="M-2 1020q0 -47 -33 -77t-84 -30t-84 30t-33 77t33 76.5t84 29.5t84 -29.5t33 -76.5zM-70 1020q0 45 -49 45t-49 -45t49 -45t49 45z" />
    <glyph glyph-name="afii59758_" unicode="&#xe4e;" 
d="M55 1438q-39 4 -78 4q-219 0 -219 -84q0 -41 121 -41v-94q-31 4 -63 4q-78 0 -133.5 -22.5t-55.5 -59.5q0 -29 49 -29q52 0 117 33l49 -82q-104 -55 -196 -45q-58 6 -91.5 38t-35.5 73q-4 84 90 129q33 20 82 24q-43 21 -43 74q0 41 35.5 83t93.5 64q94 37 278 31v-100z
" />
    <glyph glyph-name="afii59759_" unicode="&#xe4f;" horiz-adv-x="963" 
d="M901 410q0 -174 -123 -296t-297 -122t-297 122t-123 296t123 296.5t297 122.5t297 -122.5t123 -296.5zM840 410q0 147 -105.5 252.5t-253.5 105.5q-147 0 -252.5 -105.5t-105.5 -252.5q0 -148 105.5 -253.5t252.5 -105.5q148 0 253.5 105.5t105.5 253.5zM737 410
q0 -107 -74.5 -181.5t-181.5 -74.5q-106 0 -181 74.5t-75 181.5q0 106 75 181t181 75q107 0 181.5 -75t74.5 -181z" />
    <glyph glyph-name="afii59760_" unicode="&#xe50;" horiz-adv-x="774" 
d="M733 307q0 -135 -96 -226t-250 -91t-250 91t-96 226t96 227.5t250 92.5t250 -92.5t96 -227.5zM621 307q0 92 -66 155.5t-170 63.5t-169.5 -63.5t-65.5 -155.5t65.5 -155.5t169.5 -63.5t170 63.5t66 155.5z" />
    <glyph glyph-name="afii59761_" unicode="&#xe51;" horiz-adv-x="823" 
d="M782 311q0 -153 -135 -266q-121 -100 -295 -127l-51 88q152 21 259.5 106t107.5 199q0 97 -73 156t-189 59q-109 0 -179.5 -55t-70.5 -143q0 -54 32.5 -94.5t83.5 -51.5q-30 35 -30 94q0 60 47 104t112 44q66 0 113 -44t47 -104q0 -86 -75.5 -144t-184.5 -58
q-115 0 -187.5 72.5t-72.5 181.5q0 133 103.5 216t258.5 83q172 0 275.5 -85t103.5 -231zM467 274q0 66 -66 66q-65 0 -65 -66q0 -65 65 -65q66 0 66 65z" />
    <glyph glyph-name="afii59762_" unicode="&#xe52;" horiz-adv-x="1114" 
d="M1051 188q0 -82 -53.5 -135t-139.5 -53h-604q-86 0 -139.5 53t-53.5 135v471q0 72 -114 80l51 99q178 -21 178 -152v-487q0 -97 84 -97h592q84 0 84 97v227q0 100 -105 100q-38 0 -68 -22.5t-30 -54.5v-271h-115v273q0 36 -35.5 55.5t-80.5 19.5q-129 0 -129 -96
q10 2 30 2q62 0 105 -39t43 -96t-43 -96t-105 -39q-61 0 -103 39t-42 96v129q0 94 74 152q67 51 170 51q108 0 176 -62q55 62 160 62q96 0 154.5 -51.5t58.5 -141.5v-248zM459 297q0 55 -56 55q-53 0 -53 -55t53 -55q56 0 56 55z" />
    <glyph glyph-name="afii59763_" unicode="&#xe53;" horiz-adv-x="956" 
d="M895 0h-115v418q0 110 -110 110q-113 0 -113 -90v-438h-115v442q0 86 -127 86q-61 0 -100 -31.5t-39 -80.5v-142q23 7 45 7q66 0 113 -43t47 -103q0 -61 -46 -102t-114 -41q-67 0 -113.5 41t-46.5 102v279q0 102 78 161q72 54 176 54q119 0 187 -72q67 72 170 72
q98 0 160.5 -52.5t62.5 -148.5v-428zM289 135q0 27 -19.5 46.5t-46.5 19.5q-26 0 -45.5 -19.5t-19.5 -46.5q0 -67 65 -67q66 0 66 67z" />
    <glyph glyph-name="afii59764_" unicode="&#xe54;" horiz-adv-x="885" 
d="M885 844q2 -131 -67.5 -227.5t-186.5 -102.5q-47 -2 -113 2q-86 6 -129 6q-100 2 -167.5 -58.5t-65.5 -160.5q2 -98 73 -158q64 -53 154 -53q92 0 152 27q-31 6 -74 47q-60 55 -60 125q0 61 46.5 105t107.5 44q63 0 106.5 -42t43.5 -103q0 -80 -74 -121q28 -24 119 -41
q84 -14 122 -55l-65 -82q-86 41 -162 41q-35 0 -117 -22.5t-153 -22.5q-137 0 -228 74q-104 84 -106 237q-2 148 100 240q99 86 248 84q45 0 123 -6q55 -3 111 0q63 2 106 73q39 66 41 150h115zM616 293q0 65 -61 65q-27 0 -45 -19.5t-18 -45.5q0 -25 18 -43.5t45 -18.5
q61 0 61 62z" />
    <glyph glyph-name="afii59765_" unicode="&#xe55;" horiz-adv-x="885" 
d="M885 844q2 -131 -67.5 -227.5t-186.5 -102.5q-47 -2 -113 2q-86 6 -129 6q-100 2 -167.5 -58.5t-65.5 -160.5q2 -98 73 -158q64 -53 154 -53q92 0 152 27q-31 6 -74 47q-60 55 -60 125q0 61 46.5 105t107.5 44q63 0 106.5 -42t43.5 -103q0 -80 -74 -121q28 -24 119 -41
q84 -14 122 -55l-65 -82q-86 41 -162 41q-35 0 -117 -22.5t-153 -22.5q-137 0 -228 74q-102 84 -106 237q-2 121 68 207q67 80 180 106q-23 27 -23 70q0 66 48 109t122 43t122 -43t48 -109q0 -43 -22 -65h39q63 2 106 73q39 66 41 150h115zM508 690q0 27 -21.5 47.5
t-50.5 20.5q-28 0 -49.5 -20.5t-21.5 -47.5q0 -26 21.5 -46.5t49.5 -20.5q29 0 50.5 20.5t21.5 46.5zM618 295q0 63 -63 63t-63 -63q0 -64 63 -64t63 64z" />
    <glyph glyph-name="afii59766_" unicode="&#xe56;" horiz-adv-x="831" 
d="M791 315q0 -141 -110 -234t-271 -93q-146 0 -239 74.5t-93 168.5q0 64 45 104t108 40q64 0 108 -40t44 -102q0 -81 -80 -120q37 -21 107 -21q110 0 188 62.5t78 160.5q0 93 -72 152t-174 59q-162 0 -229 -108h-95q-30 209 -208 362l94 64q153 -119 201 -285q92 74 243 74
q154 0 254.5 -88t100.5 -230zM295 236q0 63 -64 63q-63 0 -63 -63q0 -64 63 -64q64 0 64 64z" />
    <glyph glyph-name="afii59767_" unicode="&#xe57;" horiz-adv-x="1171" 
d="M1231 776q-90 -49 -109 -145q-6 -33 -6 -68q0 -28 8 -106q9 -68 4 -113q-12 -139 -84.5 -230t-179.5 -114h-84v418q0 110 -110 110q-113 0 -113 -90v-438h-115v442q0 86 -127 86q-61 0 -100 -31.5t-39 -80.5v-142q23 7 45 7q66 0 113 -43t47 -103q0 -61 -46 -102
t-114 -41q-67 0 -113.5 41t-46.5 102v279q0 102 78 161q72 54 176 54q119 0 187 -72q67 72 170 72q98 0 160.5 -52.5t62.5 -148.5v-309q113 59 119 227q2 51 -4 123q-9 80 -9 109q0 38 7 73q20 109 131 193zM289 135q0 27 -19.5 46.5t-46.5 19.5q-26 0 -45.5 -19.5
t-19.5 -46.5q0 -67 65 -67q66 0 66 67z" />
    <glyph glyph-name="afii59768_" unicode="&#xe58;" horiz-adv-x="901" 
d="M903 844q-31 -332 -223 -340q-51 -2 -139 10q-95 12 -146 12q-106 0 -172.5 -51t-66.5 -143q0 -76 43 -139q37 -54 88 -78l125 159q129 -174 200 -174q29 0 56 31q-109 27 -109 133q0 55 43 96t103 41q61 0 106 -38.5t45 -100.5q0 -98 -79 -183t-175 -85q-76 0 -188 110
l-82 -114q-129 20 -210 112.5t-81 229.5q0 141 98.5 220t257.5 79q45 0 135 -10q80 -11 123 -9q113 6 133 232h115zM760 264q0 55 -55 55q-56 0 -56 -55t56 -55q55 0 55 55z" />
    <glyph glyph-name="afii59769_" unicode="&#xe59;" horiz-adv-x="995" 
d="M1040 848q4 -35 4 -72q0 -207 -106 -342l-80 25q-8 76 -86 76q-33 0 -54.5 -25t-21.5 -53q111 -168 146 -451l-115 -14q-72 543 -350 543q-94 0 -157.5 -61.5t-63.5 -154.5q0 -137 100 -202q-8 22 -8 51q0 61 47 105t113 44q65 0 112 -44t47 -105q0 -80 -61.5 -129
t-149.5 -49q-147 0 -235 100q-80 92 -80 229q0 138 95 230t235 92q155 0 250 -90q45 86 143 90q92 2 143 -51q37 110 19 258h114zM473 168q0 27 -19.5 46t-45.5 19q-27 0 -46.5 -19t-19.5 -46q0 -68 66 -68q65 0 65 68z" />
    <glyph glyph-name="afii59770_" unicode="&#xe5a;" horiz-adv-x="918" 
d="M856 0h-113v819h113v-819zM662 0h-113v598q-41 -53 -113 -90q-84 -45 -174 -45q-92 0 -158 47q-73 53 -73 145q0 82 73 131q66 41 160 41q60 0 107 -18v-113q-52 33 -115 33q-113 0 -113 -76q0 -41 36 -64.5t85 -23.5q115 0 188.5 70t94.5 184h115v-819z" />
    <glyph glyph-name="afii59771_" unicode="&#xe5b;" horiz-adv-x="1393" 
d="M1368 434q0 -31 -55 -37l-103 -10q-18 -57 -49 -57q-20 0 -59 69q-27 -92 -60 -92q-24 0 -71 105q-31 -125 -66 -125q-16 0 -36.5 44t-39.5 89q-34 -158 -84 -158q-34 0 -47 53q-6 33 -26 99q-33 -138 -111 -226q-100 -112 -227 -112q-121 0 -197 94t-76 244
q0 145 72 243.5t178 98.5q88 0 150.5 -72t62.5 -178q0 -84 -39 -137.5t-98 -53.5q-51 0 -87 40t-36 94q0 53 37 94t84 41q14 0 21 -2q-33 80 -93 80q-63 0 -107 -72t-44 -184q0 -109 51 -173.5t131 -64.5q94 0 164 95t92 253q12 82 57 82q48 0 99 -149q22 131 53 131
q47 0 92 -119q21 82 45 82q39 0 94 -107q23 78 56 78q28 0 61 -63q17 32 47 28l111 -14q53 -6 53 -31zM434 449q0 61 -49 61t-49 -61q0 -60 49 -60t49 60z" />
    <glyph glyph-name="f718_" unicode="&#xf718;" 
d="M-59 -592h-115v156h-62v90h177v-246z" />
    <glyph glyph-name="f719_" unicode="&#xf719;" 
d="M-59 -477q0 -135 -183 -135q-182 0 -182 135v41h-41v90h156v-125q0 -53 67 -53q68 0 68 53v125h115v-131z" />
    <glyph glyph-name="f71a_" unicode="&#xf71a;" 
d="M-59 -430q0 -35 -25 -59.5t-59 -24.5q-35 0 -59.5 24.5t-24.5 59.5t24.5 59.5t59.5 24.5q34 0 59 -24.5t25 -59.5z" />
    <glyph glyph-name="minus" unicode="&#xad;" horiz-adv-x="748" 
d="M686 295h-625v92h625v-92z" />
    <glyph glyph-name="multiply" unicode="&#xd7;" horiz-adv-x="748" 
d="M686 94l-65 -65l-248 247l-246 -245l-66 63l246 248l-244 244l64 65l246 -243l245 245l66 -65l-246 -246z" />
    <glyph glyph-name="glyph236" horiz-adv-x="1599" 
d="M100 0h1399v1599h-1399v-1599zM1401 100h-1200v1399h1200v-1399z" />
    <glyph glyph-name="glyph237" horiz-adv-x="492" 
 />
  </font>
</defs>
</svg>
